BitTorrentTracker PerecTracker.org
BitTorrentTracker PerecTracker.org
    
Регистрация  ·  Вход
 
 · 
Забыли пароль?

  • Судья Джон Дид / Judge John Deed / Сезоны: 1-4 / Серии: 1-18 из 18 (Алрик Райли) [2001-2005, Судебная драма, DVDRip] Original + Rus Subs (Евгения Боровкова)

    Ответить на тему
     
    Автор Сообщение

    rechyn

    Создавать темы 06-Мар-2016 18:44

           

    [Цитировать]

    Судья Джон Дид / Judge John Deed
    Год выпуска: 2001
    Страна: Великобритания
    Жанр: Судебная драма
    Продолжительность: 01:28:45
    Перевод: Субтитры Евгения Боровкова
    Режиссёр: Алрик Райли
    В ролях: Мартин Шоу, Дженни Сигроув, Виктор Ромеро Эванс, Барбара Торн, Луиза Клейн, Кэролайн Лэнгриш, Доминик Джефкотт, Дональд Синден, Колин Салмон, Т.Р. Боун, Кристофер Кейзнов, Джонатан Кой
    Описание: В основе британского сериала Гордона Ньюмана - история судьи Верховного Суда Джона Дида, который принципиально щепетилен в разборе различных уголовных и гражданских исков, многие из которых касаются скандальных споров против корпораций, убийств и сложных социальных дилемм. Большинство решений судьи, в прошлом известного адвоката по уголовным делам, вызывают крайнее недовольство в правительственных кругах, - в результате чего большая часть чиновничьего аппарата департамента Лорда-канцлера мечтает спровадить Джона Дида в отставку, надеясь достать на него какой-либо компромат(c)
    Ссылка на предыдущие и альтернативные раздачи: http://perectracker.org/tracker.php?f=42&a...=Judge+John+DeedКачество: DVDRip
    Формат: AVI
    Видео: XviD, 640х368 (1,739:1), 25.000 fps, 971 kbps (1я серия)
    Видео: XviD, 576х320 (16:9), 25.000 fps, 971 kbps (2-4 серии)
    Аудио: MP3, 116 kbps, 2 channel, 48 kHz (английский)
    Субтитры: русские (Евгения Боровкова)

    MediaInfo (1я серия)

    Общее
    Полное имя : D:\Judge John Deed Season 1\Judge John Deed S01E01 Rough Justice.Avi
    Формат : AVI
    Формат/Информация : Audio Video Interleave
    Размер файла : 699 Мбайт
    Продолжительность : 1 ч. 28 м.
    Режим общего битрейта : Переменный
    Общий поток : 1100 Кбит/сек
    Программа кодирования : VirtualDubMod 1.5.4.1 (build 2178/release)
    Библиотека кодирования : VirtualDubMod build 2178/release
    Видео
    Идентификатор : 0
    Формат : MPEG-4 Visual
    Профиль формата : Advanced Simple@L5
    Параметр BVOP формата : 1
    Параметр QPel формата : Нет
    Параметр GMC формата : Без точки перехода
    Параметр матрицы формата : Выборочная
    Идентификатор кодека : XVID
    Идентификатор кодека/Подсказка : XviD
    Продолжительность : 1 ч. 28 м.
    Битрейт : 971 Кбит/сек
    Ширина : 640 пикселей
    Высота : 368 пикселей
    Соотношение сторон : 1,739
    Частота кадров : 25,000 кадров/сек
    Цветовое пространство : YUV
    Субдискретизация насыщенности : 4:2:0
    Битовая глубина : 8 бит
    Тип развёртки : Прогрессивная
    Метод сжатия : С потерями
    Бит/(Пиксели*Кадры) : 0.165
    Размер потока : 617 Мбайт (88%)
    Библиотека кодирования : XviD 1.1.0 (UTC 2005-11-22)
    Аудио
    Идентификатор : 1
    Формат : MPEG Audio
    Версия формата : Version 1
    Профиль формата : Layer 3
    Режим : Joint stereo
    Расширение режима : MS Stereo
    Идентификатор кодека : 55
    Идентификатор кодека/Подсказка : MP3
    Продолжительность : 1 ч. 28 м.
    Вид битрейта : Переменный
    Битрейт : 116 Кбит/сек
    Номинальный битрейт : 128 Кбит/сек
    Каналы : 2 канала
    Частота : 48,0 КГц
    Метод сжатия : С потерями
    Размер потока : 73,9 Мбайт (11%)
    Выравнивание : Соединение по промежуткам
    Продолжительность промежутка : 24 мс. (0,60 видеокадр)
    Время предзагрузки промежутка : 547 мс.
    Библиотека кодирования : LAME3.97b
    Настройки программы : -m j -V 4 -q 2 -lowpass 17 --abr 128

    MediaInfo (2-4 серии)

    Общее
    Формат : AVI
    Формат/Информация : Audio Video Interleave
    Размер файла : 700 Мбайт
    Продолжительность : 1 ч. 29 м.
    Общий поток : 1099 Кбит/сек
    Программа кодирования : FairUse Wizard -
    Библиотека кодирования : The best and REALLY easy backup tool
    Видео
    Идентификатор : 0
    Формат : MPEG-4 Visual
    Профиль формата : Advanced Simple@L5
    Параметр BVOP формата : 2
    Параметр QPel формата : Нет
    Параметр GMC формата : Без точки перехода
    Параметр матрицы формата : Default (H.263)
    Режим смешивания : Сжатый битовый поток
    Идентификатор кодека : XVID
    Идентификатор кодека/Подсказка : XviD
    Продолжительность : 1 ч. 29 м.
    Битрейт : 919 Кбит/сек
    Ширина : 576 пикселей
    Высота : 320 пикселей
    Соотношение сторон : 16:9
    Частота кадров : 25,000 кадров/сек
    Цветовое пространство : YUV
    Субдискретизация насыщенности : 4:2:0
    Битовая глубина : 8 бит
    Тип развёртки : Прогрессивная
    Метод сжатия : С потерями
    Бит/(Пиксели*Кадры) : 0.199
    Размер потока : 585 Мбайт (84%)
    Библиотека кодирования : XviD 1.2.0.dev47 (UTC 2006-11-01)
    Аудио
    Идентификатор : 1
    Формат : MPEG Audio
    Версия формата : Version 1
    Профиль формата : Layer 3
    Режим : Joint stereo
    Расширение режима : MS Stereo
    Идентификатор кодека : 55
    Идентификатор кодека/Подсказка : MP3
    Продолжительность : 1 ч. 29 м.
    Вид битрейта : Постоянный
    Битрейт : 128 Кбит/сек
    Каналы : 2 канала
    Частота : 48,0 КГц
    Метод сжатия : С потерями
    Размер потока : 81,5 Мбайт (12%)
    Выравнивание : Соединение по промежуткам
    Библиотека кодирования : LAME3.97b
    Настройки программы : -m j -V 4 -q 2 -lowpass 17 -b 128

    Скриншоты

    ]
    Скачать .torrent

    Скачать торрент-файл бесплатно и на максимальной скорости!

    Как скачивать? · Что такое торрент? · Рейтинг и ограничения

    !ВНИМАНИЕ!
    Сайт не распространяет и не хранит электронные версии произведений, а занимается лишь лишь предоставлением доступа к создаваемому пользователями каталогу ссылок на торрент-файлы, которые содержат только списки хеш-сумм, убедительная просьба с жалобами обращаться напрямую к пользователю. Файлы для обмена на трекере предоставлены пользователями сайта, и администрация не несёт ответственности за их содержание. Просьба не заливать файлы, защищенные авторскими правами, а также файлы нелегального содержания!


    _________________
    [Профиль] [ЛС]
    Показать сообщения:    
    Ответить на тему

    Текущее время: Сегодня, в 13:03

    Часовой пояс: GMT + 2



    Вы не можете начинать темы
    Вы не можете отвечать на сообщения
    Вы не можете редактировать свои сообщения
    Вы не можете удалять свои сообщения
    Вы не можете голосовать в опросах
    Вы не можете прикреплять файлы к сообщениям
    Вы не можете скачивать файлы