BitTorrentTracker PerecTracker.org
BitTorrentTracker PerecTracker.org
    
Регистрация  ·  Вход
 
 · 
Забыли пароль?

  • В сердце моря / In the Heart of the Sea (Рон Ховард / Ron Howard ) [2015, США, Австралия, Испания, Великобритания, Канада, Боевик, триллер, драма, приключения, биография, история, BDRip, HD (720p)] DUB + Original + sub (rus, ukr, eng)

    Ответить на тему
     
    Автор Сообщение

    Flirldrerve

    Создавать темы 06-Мар-2016 17:41

           

    [Цитировать]

    В сердце моря / In the Heart of the Sea
    «Based on the incredible true story that inspired Moby-Dick»
    7.427 / 10 7.00 / 10
    -Год выпуска: 2015
    Страна: США, Австралия, Испания, Великобритания, Канада
    Жанр: Боевик, триллер, драма, приключения, биография, история
    Продолжительность: 02:01:43
    Перевод: Дублированный (iTunes)
    Оригинальная аудиодорожка: Есть
    Cубтитры: Русские форсированные, Украинские форсированные, Русские, Английские, Английские SDH
    Режиссёр: Рон Ховард
    Сценарий: Чарльз Ливитт, Рик Джаффа, Аманда Сильвер
    Продюсер: Брайан Грейзер, Рон Ховард, Джо Рот
    Оператор: Энтони Дод Мэнтл
    Композитор: Роке Баньос
    Художник: Марк Тилдесли, Нил Кэллоу, Дин Клегг
    Монтаж: Дэниэл П. Хэнли, Майк Хилл
    В ролях: Крис Хемсворт, Бенджамин Уокер, Киллиан Мёрфи, Брендан Глисон, Бен Уишоу, Мишель Фэйрли, Том Холланд, Пол Андерсон, Фрэнк Диллэйн, Джозеф Моул
    Бюджет: $100 000 000
    Сборы в США: $25 020 758
    Сборы в мире: + $68 800 000 = $93 820 758
    Сборы в России: $4 162 474
    Мировая премьера: 2 декабря 2015
    Премьера (РФ): 3 декабря 2015, «Каро-Премьер»
    Описание: В 1819 году американский корабль «Эссекс» с командой из двух десятков человек на борту отправился из порта в штате Массачусетс на китобойный промысел. Осенью 1820-го успешная на протяжении полутора лет охота была прервана атакой гигантского кашалота на судно, в результате чего морякам пришлось пересесть в шлюпки. В течение трех с лишним месяцев они боролись за выживание посреди океана…-Качество исходника: BDRemux (HDClub)
    Качество: BDRip
    Тип: HD (720p)
    Контейнер: M4V
    Видео: H.264, 1280x720, 16:9, 3 500 Kbps, 23.976 (24000/1001) fps
    Аудио 1: Русский/Дублированный (iTunes), AAC / 2.0 / 157 Kbps / 48.0 KHz
    Аудио 2: Английский/Оригинальная дорожка , AAC / 2.0 / 157 Kbps / 48.0 KHz
    Аудио 3: Украинский/Дублированный (iTunes), AAC / 2.0 / 157 Kbps / 48.0 KHz
    Аудио 4: Русский/Дублированный (iTunes), AC-3 / 5.1 / 384 Kbps / 48.0 KHz
    Аудио 5: Английский/Оригинальная дорожка , AC-3 / 5.1 / 640 Kbps / 48.0 KHz
    Субтитры 1: Русские форсированные
    Субтитры 2: Украинские форсированные
    Субтитры 3: Русские полные
    Субтитры 4: Английские полные
    Субтитры 5: Английские SDH
    -

    iTunes Meta Tags

    Sort Name: In the Heart of the Sea
    XID: Apple:vendor_id:2015-463893
    contentID: 996535172
    Copyright: © 2015 Warner Bros. Entertainment Inc. All Rights Reserved.
    Screenwriters: Чарльз Ливитт, Рик Джаффа, Аманда Сильвер
    Producers: Брайан Грейзер, Рон Ховард, Джо Рот
    Director: Рон Ховард
    Cast: Крис Хемсворт, Бенджамин Уокер, Киллиан Мёрфи, Брендан Глисон, Бен Уишоу, Мишель Фэйрли, Том Холланд, Пол Андерсон, Фрэнк Диллэйн, Джозеф Моул, Денис Беспалый, Алексей Рязанцев, Илья Бледный, Игорь Старосельцев, Михаил Тихонов
    Studio: Warner Bros.
    Rating: 4
    Long Description: В 1819 году американский корабль \"Эссекс\" с командой из двух десятков человек на борту отправился из порта в штате Массачусетс на китобойный промысел. Осенью 1820-го успешная на протяжении полутора лет охота была прервана атакой гигантского кашалота на судно, в результате чего морякам пришлось пересесть в шлюпки. В течение трех с лишним месяцев они боролись за выживание посреди океана...
    Description: В 1819 году американский корабль \"Эссекс\" с командой из двух десятков человек на борту отправился из порта в штате Массачусетс на китобойный промысел. Осенью 1820-го успешная на протяжении полутора лет охота была прервана атакой гигантского кашалота на судно, в результате чего морякам пришлось пересесть в шлюпки. В течение трех с лишним месяцев они боролись за выживание посреди океана...
    Release Date: 2015-12-02T08:00:00Z
    Genre: Drama
    Artist: Ron Howard
    Name: In the Heart of the Sea

    MediaInfo

    General
    Complete name : /Users/imac/HandBrake/In the Heart of the Sea (720p HD).m4v
    Format : MPEG-4
    Codec ID : M4V  (M4V /M4A /mp42/isom)
    File size : 4.25 GiB
    Duration : 2h 1mn
    Overall bit rate mode : Variable
    Overall bit rate : 4 999 Kbps
    Movie name : In the Heart of the Sea
    Performer : Ron Howard
    Director : Рон Ховард
    Actor : Крис Хемсворт / Бенджамин Уокер / Киллиан Мёрфи / Брендан Глисон / Бен Уишоу / Мишель Фэйрли / Том Холланд / Пол Андерсон / Фрэнк Диллэйн / Джозеф Моул / Денис Беспалый / Алексей Рязанцев / Илья Бледный / Игорь Старосельцев / Михаил Тихонов
    Screenplay by : Чарльз Ливитт / Рик Джаффа / Аманда Сильвер
    Producer : Брайан Грейзер / Рон Ховард / Джо Рот
    Production studio : Warner Bros.
    Genre : Drama
    ContentType : Short Film
    Description : В 1819 году американский корабль \"Эссекс\" с командой из двух десятков человек на борту отправился из порта в штате Массачусетс на китобойный промысел. Осенью 1820-го успешная на протяжении полутора лет охота была прервана атакой гигантского кашалота на судно, в результате чего морякам пришлось пересесть в шлюпки. В течение трех с лишним месяцев они боролись за выживание посреди океана...
    Recorded date : UTC 2015-12-02 08:00:00
    Encoded date : UTC 2016-03-06 11:31:59
    Tagged date : UTC 2016-03-06 11:36:12
    Copyright : © 2015 Warner Bros. Entertainment Inc. All Rights Reserved.
    Cover : Yes
    Rating : None
    Title/Sort : In the Heart of the Sea
    LongDescription : В 1819 году американский корабль \"Эссекс\" с командой из двух десятков человек на борту отправился из порта в штате Массачусетс на китобойный промысел. Осенью 1820-го успешная на протяжении полутора лет охота была прервана атакой гигантского кашалота на судно, в результате чего морякам пришлось пересесть в шлюпки. В течение трех с лишним месяцев они боролись за выживание посреди океана...
    HDVideo : Yes
    AppleStoreCatalogID : 996535172
    Vendor : Apple:vendor_id:2015-463893
    ContentRating : mpaa|PG-13|300|
    Video #1
    ID : 1
    Format : AVC
    Format/Info : Advanced Video Codec
    Format profile : High@L3.1
    Format settings, CABAC : No
    Format settings, ReFrames : 3 frames
    Codec ID : avc1
    Codec ID/Info : Advanced Video Coding
    Duration : 2h 1mn
    Source duration : 2h 1mn
    Bit rate : 3 500 Kbps
    Width : 1 280 pixels
    Height : 720 pixels
    Display aspect ratio : 16:9
    Frame rate mode : Variable
    Frame rate : 23.976 (24000/1001) fps
    Minimum frame rate : 23.974 fps
    Maximum frame rate : 23.981 fps
    Color space : YUV
    Chroma subsampling : 4:2:0
    Bit depth : 8 bits
    Scan type : Progressive
    Bits/(Pixel*Frame) : 0.158
    Stream size : 2.97 GiB (70%)
    Source stream size : 2.97 GiB (70%)
    Title : Main Program
    Writing library : x264 core 142 r2479 dd79a61
    Encoding settings : cabac=0 / ref=3 / deblock=1:-3:-3 / analyse=0x3:0x113 / me=umh / subme=9 / psy=1 / psy_rd=1.00:0.15 / mixed_ref=1 / me_range=32 / chroma_me=1 / trellis=0 / 8x8dct=1 / cqm=0 / deadzone=21,11 / fast_pskip=0 / chroma_qp_offset=-2 / threads=36 / lookahead_threads=3 / sliced_threads=0 / nr=0 / decimate=0 / interlaced=0 / bluray_compat=0 / constrained_intra=0 / bframes=3 / b_pyramid=0 / b_adapt=2 / b_bias=0 / direct=1 / weightb=0 / open_gop=0 / weightp=0 / keyint=240 / keyint_min=24 / scenecut=40 / intra_refresh=0 / rc_lookahead=40 / rc=2pass / mbtree=1 / bitrate=3500 / ratetol=1.0 / qcomp=0.65 / qpmin=0 / qpmax=69 / qpstep=4 / cplxblur=20.0 / qblur=0.5 / vbv_maxrate=9500 / vbv_bufsize=9500 / nal_hrd=none / filler=0 / ip_ratio=1.40 / aq=1:1.10
    Language : English
    Encoded date : UTC 2016-03-06 11:31:59
    Tagged date : UTC 2016-03-06 11:32:05
    Color range : Limited
    Color primaries : BT.709
    Transfer characteristics : BT.709
    Matrix coefficients : BT.709
    Menus : 12,13
    Video #2
    ID : 13
    Format : JPEG
    Codec ID : jpeg
    Duration : 2h 1mn
    Bit rate mode : Variable
    Bit rate : 501 bps
    Width : 640 pixels
    Height : 360 pixels
    Display aspect ratio : 16:9
    Frame rate mode : Variable
    Frame rate : 0.002 fps
    Minimum frame rate : 0.001 fps
    Maximum frame rate : 0.003 fps
    Color space : YUV
    Chroma subsampling : 4:2:0
    Bit depth : 8 bits
    Compression mode : Lossy
    Bits/(Pixel*Frame) : 1.087
    Stream size : 367 KiB (0%)
    Title : Chapter Images
    Language : English
    Default : No
    Encoded date : UTC 2016-03-06 11:32:50
    Tagged date : UTC 2016-03-06 11:32:51
    Menu For : 1
    Audio #1
    ID : 2
    Format : AAC
    Format/Info : Advanced Audio Codec
    Format profile : LC
    Codec ID : 40
    Duration : 2h 1mn
    Bit rate mode : Variable
    Bit rate : 157 Kbps
    Maximum bit rate : 240 Kbps
    Channel(s) : 2 channels
    Channel positions : Front: L R
    Sampling rate : 48.0 KHz
    Frame rate : 46.875 fps (1024 spf)
    Compression mode : Lossy
    Stream size : 137 MiB (3%)
    Title : Russian Stereo
    Language : Russian
    Default : Yes
    Alternate group : 1
    Encoded date : UTC 2016-03-06 11:32:00
    Tagged date : UTC 2016-03-06 11:32:47
    Fallback From : 5
    Subtitles : 7,9
    Audio #2
    ID : 3
    Format : AAC
    Format/Info : Advanced Audio Codec
    Format profile : LC
    Codec ID : 40
    Duration : 2h 1mn
    Bit rate mode : Variable
    Bit rate : 157 Kbps
    Maximum bit rate : 246 Kbps
    Channel(s) : 2 channels
    Channel positions : Front: L R
    Sampling rate : 48.0 KHz
    Frame rate : 46.875 fps (1024 spf)
    Compression mode : Lossy
    Stream size : 137 MiB (3%)
    Title : English Stereo
    Language : English
    Default : No
    Alternate group : 1
    Encoded date : UTC 2016-03-06 11:32:00
    Tagged date : UTC 2016-03-06 11:32:47
    Fallback From : 6
    Audio #3
    ID : 4
    Format : AAC
    Format/Info : Advanced Audio Codec
    Format profile : LC
    Codec ID : 40
    Duration : 2h 1mn
    Bit rate mode : Variable
    Bit rate : 157 Kbps
    Maximum bit rate : 222 Kbps
    Channel(s) : 2 channels
    Channel positions : Front: L R
    Sampling rate : 48.0 KHz
    Frame rate : 46.875 fps (1024 spf)
    Compression mode : Lossy
    Stream size : 137 MiB (3%)
    Title : Ukrainian Stereo
    Language : Ukrainian
    Default : No
    Alternate group : 1
    Encoded date : UTC 2016-03-06 11:32:00
    Tagged date : UTC 2016-03-06 11:32:47
    Subtitles : 8
    Audio #4
    ID : 5
    Format : AC-3
    Format/Info : Audio Coding 3
    Mode extension : CM (complete main)
    Format settings, Endianness : Big
    Codec ID : ac-3
    Duration : 2h 1mn
    Bit rate mode : Constant
    Bit rate : 384 Kbps
    Channel(s) : 6 channels
    Channel positions : Front: L C R, Side: L R, LFE
    Sampling rate : 48.0 KHz
    Frame rate : 31.250 fps (1536 spf)
    Bit depth : 16 bits
    Compression mode : Lossy
    Stream size : 334 MiB (8%)
    Title : Russian DD 5.1
    Language : Russian
    Default : Inherited From: 2
    Alternate group : 1
    Encoded date : UTC 2016-03-06 11:32:00
    Tagged date : UTC 2016-03-06 11:32:47
    Fallback To : 2
    Subtitles : 7,9
    Audio #5
    ID : 6
    Format : AC-3
    Format/Info : Audio Coding 3
    Mode extension : CM (complete main)
    Format settings, Endianness : Big
    Codec ID : ac-3
    Duration : 2h 1mn
    Bit rate mode : Constant
    Bit rate : 640 Kbps
    Channel(s) : 6 channels
    Channel positions : Front: L C R, Side: L R, LFE
    Sampling rate : 48.0 KHz
    Frame rate : 31.250 fps (1536 spf)
    Bit depth : 16 bits
    Compression mode : Lossy
    Stream size : 557 MiB (13%)
    Title : English DD 5.1
    Language : English
    Default : No
    Alternate group : 1
    Encoded date : UTC 2016-03-06 11:32:00
    Tagged date : UTC 2016-03-06 11:32:47
    Fallback To : 3
    Text #1
    ID : 7
    Format : Timed Text
    Muxing mode : sbtl
    Codec ID : tx3g
    Duration : 1h 52mn
    Bit rate mode : Variable
    Bit rate : 2 bps
    Stream size : 1.79 KiB (0%)
    Title : Russian forced
    Language : Russian
    Default : Yes
    Forced : Yes
    Alternate group : 2
    Encoded date : UTC 2016-03-06 11:32:00
    Tagged date : UTC 2016-03-06 11:32:44
    Subtitles For : 2,5
    Full Alternative : 9
    Text #2
    ID : 8
    Format : Timed Text
    Muxing mode : sbtl
    Codec ID : tx3g
    Duration : 1h 52mn
    Bit rate mode : Variable
    Bit rate : 2 bps
    Stream size : 1.87 KiB (0%)
    Title : Ukrainian forced
    Language : Ukrainian
    Default : No
    Forced : Yes
    Alternate group : 2
    Encoded date : UTC 2016-03-06 11:32:00
    Tagged date : UTC 2016-03-06 11:32:44
    Subtitles For : 4
    Text #3
    ID : 9
    Format : Timed Text
    Muxing mode : sbtl
    Codec ID : tx3g
    Duration : 1h 52mn
    Bit rate mode : Variable
    Bit rate : 93 bps
    Stream size : 76.6 KiB (0%)
    Title : Russian full
    Language : Russian
    Default : No
    Forced : No
    Alternate group : 2
    Encoded date : UTC 2016-03-06 11:32:00
    Tagged date : UTC 2016-03-06 11:32:44
    Subtitles For : 2,5
    Forced Alternative : 7
    Text #4
    ID : 10
    Format : Timed Text
    Muxing mode : sbtl
    Codec ID : tx3g
    Duration : 2h 1mn
    Bit rate mode : Variable
    Bit rate : 50 bps
    Stream size : 44.3 KiB (0%)
    Title : English full
    Language : English
    Default : No
    Forced : No
    Alternate group : 2
    Encoded date : UTC 2016-03-06 11:32:00
    Tagged date : UTC 2016-03-06 11:32:44
    Text #5
    ID : 11
    Format : Timed Text
    Muxing mode : sbtl
    Codec ID : tx3g
    Duration : 2h 1mn
    Bit rate mode : Variable
    Bit rate : 55 bps
    Stream size : 48.8 KiB (0%)
    Title : English SDH
    Language : English
    Default : No
    Forced : No
    Alternate group : 2
    Encoded date : UTC 2016-03-06 11:32:00
    Tagged date : UTC 2016-03-06 11:32:44
    Menu #1
    00:00:00.000 : Chapter 1
    00:12:07.560 : Chapter 2
    00:21:19.820 : Chapter 3
    00:33:32.052 : Chapter 4
    00:42:37.096 : Chapter 5
    00:51:32.756 : Chapter 6
    01:06:45.919 : Chapter 7
    01:13:14.098 : Chapter 8
    01:23:23.373 : Chapter 9
    01:33:47.956 : Chapter 10
    01:43:22.113 : Chapter 11
    01:53:00.857 : Chapter 12
    Menu #2
    ID : 12
    Codec ID : text
    Duration : 2h 1mn
    Language : English
    Encoded date : UTC 2016-03-06 11:32:47
    Tagged date : UTC 2016-03-06 11:32:47
    Menu For : 1
    00:00:00.000 : Chapter 1
    00:12:07.560 : Chapter 2
    00:21:19.820 : Chapter 3
    00:33:32.052 : Chapter 4
    00:42:37.096 : Chapter 5
    00:51:32.756 : Chapter 6
    01:06:45.919 : Chapter 7
    01:13:14.098 : Chapter 8
    01:23:23.373 : Chapter 9
    01:33:47.956 : Chapter 10
    01:43:22.113 : Chapter 11
    01:53:00.857 : Chapter 12
    Bit rate mode : VBR

    x264 лог

    x264 [info]: frame I:1521  Avg QP:17.03  size: 72376
    x264 [info]: frame P:73750 Avg QP:20.30  size: 28003
    x264 [info]: frame B:99833 Avg QP:21.45  size: 10149
    x264 [info]: consecutive B-frames:  6.6% 42.7% 28.0% 22.6%
    x264 [info]: mb I  I16..4: 19.7% 50.8% 29.5%
    x264 [info]: mb P  I16..4:  5.8% 10.5%  4.0%  P16..4: 45.0% 15.7%  6.5%  0.0%  0.0%    skip:12.5%
    x264 [info]: mb B  I16..4:  0.6%  1.8%  0.9%  B16..8: 38.4%  8.1%  1.2%  direct: 4.2%  skip:44.9%  L0:39.0% L1:53.2% BI: 7.8%
    x264 [info]: 8x8 transform intra:52.0% inter:52.9%
    x264 [info]: coded y,uvDC,uvAC intra: 62.4% 66.5% 31.5% inter: 17.1% 18.9% 6.3%
    x264 [info]: i16 v,h,dc,p: 34% 19%  7% 40%
    x264 [info]: i8 v,h,dc,ddl,ddr,vr,hd,vl,hu:  6%  9%  5% 11% 16% 14% 16% 11% 12%
    x264 [info]: i4 v,h,dc,ddl,ddr,vr,hd,vl,hu:  7% 11%  4% 11% 17% 14% 16%  9% 10%
    x264 [info]: i8c dc,h,v,p: 52% 20% 18% 11%
    x264 [info]: ref P L0: 73.0% 16.0% 11.0%
    x264 [info]: ref B L0: 82.9% 17.1%
    x264 [info]: kb/s:3492.64

    Скриншоты

    -

    Релиз подготовлен для просмотра на Apple TV, iPad, iPhone, iPod Touch.
    Для просмотра данного релиза на компьютере с ОС Windows рекомендуется использовать VLC media player
    Скачать .torrent

    Скачать торрент-файл бесплатно и на максимальной скорости!

    Как скачивать? · Что такое торрент? · Рейтинг и ограничения

    !ВНИМАНИЕ!
    Сайт не распространяет и не хранит электронные версии произведений, а занимается лишь лишь предоставлением доступа к создаваемому пользователями каталогу ссылок на торрент-файлы, которые содержат только списки хеш-сумм, убедительная просьба с жалобами обращаться напрямую к пользователю. Файлы для обмена на трекере предоставлены пользователями сайта, и администрация не несёт ответственности за их содержание. Просьба не заливать файлы, защищенные авторскими правами, а также файлы нелегального содержания!


    _________________
    [Профиль] [ЛС]
    Показать сообщения:    
    Ответить на тему

    Текущее время: Сегодня, в 00:32

    Часовой пояс: GMT + 2



    Вы не можете начинать темы
    Вы не можете отвечать на сообщения
    Вы не можете редактировать свои сообщения
    Вы не можете удалять свои сообщения
    Вы не можете голосовать в опросах
    Вы не можете прикреплять файлы к сообщениям
    Вы не можете скачивать файлы