BitTorrentTracker PerecTracker.org
BitTorrentTracker PerecTracker.org
    
Регистрация  ·  Вход
 
 · 
Забыли пароль?

  • Белль и Себастьян, приключение продолжается / Belle et Sébastien, l\'aventure continue (Кристиан Дюге / Christian Duguay) [2015, Франция, Приключения, семейный, драма, DVDRip] VO (Компания АнВад)

    Ответить на тему
     
    Автор Сообщение

    rechyn

    Создавать темы 06-Мар-2016 17:41

           

    [Цитировать]

    Белль и Себастьян, приключение продолжается
    <>------------------------------------------------------------------------------<>
    Belle et Sébastien, l'aventure continue
    --Страна: Франция
    Жанр: Приключения, семейный, драма
    Продолжительность: 01:36:50
    Год выпуска: 2015
    Перевод: : одноголосый закадровый (Компания АнВад)
    Оригинальная аудиодорожка: нет
    Субтитры: нет-Режиссёр: Кристиан Дюге / Christian Duguay-В ролях: Феликс Боссюэ / Felix Bossuet, Чеки Карио / Tcheky Karyo, Тьерри Нёвик / Thierry Neuvic, Марго Шателье / Margaux Chatelier, Юрбен Канселье, Тилан Блондо / Thylane Blondeau и другие-Описание:
    Данный фильм является сиквелом Белль и Себастьян (2013)
    Действие картины разворачивается все в той же деревушке под названием Сен Мартен. Время - сентябрь 1945 года, в деревне - празднование окончания войны и начала нового учебного года. Все дети в школе ...но только не наш Себастьян. Он прогульщик и ему больше по душе катание на санях по зеленой траве вместе со своей подружкой - собакой по кличке Белль. Вместе с дедушкой Сезаром они с нетерпением ждут возвращения Ангелины, племянницы Сезара, которая должна прилететь самолетом из Англии, где принимала участие в сопротивлении во время войны. Но самолет терпит крушение в самом сердце альпийских лесов. Вся деревня уже потеряла надежду на спасение Ангелины, за исключением Сезара, который знает Пьера — человека способного помочь им найти девушку. На пути к ее спасению мальчику и его собаке предстоит выдержать множество опасностей, пройти через многие испытания и узнать тайну, которая изменит жизнь Белль и Себастьяна навсегда. Приключение продолжается…
    --Доп. информация:-(Lisok (Lisochek) - за титры и перевод
    анвад (Андрею Новицкому) за озвучку фильма-Релиз для IMDb: 6,2 (101) СЭМПЛЫ http://multi-up.com/1091676, http://multi-up.com/1091677-Первый фильм о приключениях мальчика и его собаки: Белль и Себастьян (2013) -
    http://perectracker.org/tracker.php?nm=Belle%20e...Sebastien%202013-Основой для фильма послужила серия повестей «Белль и Себастьян» французской писательницы и актрисы Сесиль Обри.
    На главную роль Себастьяна претендовало 2400 мальчиков. В главной собачьей роли - большой пиренейский зенненхунд / большая пиренейская горная собака - по кличке Гарфилд (и в первой и во второй части фильмов про Белль и Себастьяна в съемках кроме Гарфилда участвовали еще две собаки этой же породы, но по мнению режиссеров именно Гарфилд был безусловной звездой, и большую часть экранного времени в кадре был именно он.--Качество: DVDRip
    Формат: avi
    Видео: XviD, 1 637 Kbps, 720 x 304, 2,35:1, 24,000 fps
    Аудио: AC3, 6 ch, 384 kbps, 48 kHz | RUS VO Компания АнВад-

    MediaInfo

    General
    Complete name : Belle et Sebastien, l'aventure continue (2015).avi
    Format : AVI
    Format/Info : Audio Video Interleave
    File size : 1.37 GiB
    Duration : 1h 36mn
    Overall bit rate : 2 030 Kbps
    Writing application : VirtualDubMod 1.5.10.2 (build 2542/release)
    Writing library : VirtualDubMod build 2542/release
    Video #0
    ID : 0
    Format : MPEG-4 Visual
    Format profile : Advanced Simple@L5
    Format settings, BVOP : 1
    Format settings, QPel : No
    Format settings, GMC : No warppoints
    Format settings, Matrix : Default (H.263)
    Codec ID : XVID
    Codec ID/Hint : XviD
    Duration : 1h 36mn
    Bit rate : 1 637 Kbps
    Width : 720 pixels
    Height : 304 pixels
    Display aspect ratio : 2.35:1
    Frame rate : 24.000 fps
    Color space : YUV
    Chroma subsampling : 4:2:0
    Bit depth : 8 bits
    Scan type : Progressive
    Compression mode : Lossy
    Bits/(Pixel*Frame) : 0.312
    Stream size : 1.11 GiB (81%)
    Writing library : XviD 67
    Audio #1
    ID : 1
    Format : AC-3
    Format/Info : Audio Coding 3
    Mode extension : CM (complete main)
    Codec ID : 2000
    Duration : 1h 36mn
    Bit rate mode : Constant
    Bit rate : 384 Kbps
    Channel(s) : 6 channels
    Channel positions : Front: L C R, Side: L R, LFE
    Sampling rate : 48.0 KHz
    Bit depth : 16 bits
    Compression mode : Lossy
    Stream size : 266 MiB (19%)
    Alignment : Split accross interleaves
    Interleave, duration : 42 ms (1.00 video frame)
    Interleave, preload duration : 500 ms

    Скриншоты


    фото актеров

    постеры



    Скачать .torrent

    Скачать торрент-файл бесплатно и на максимальной скорости!

    Как скачивать? · Что такое торрент? · Рейтинг и ограничения

    !ВНИМАНИЕ!
    Сайт не распространяет и не хранит электронные версии произведений, а занимается лишь лишь предоставлением доступа к создаваемому пользователями каталогу ссылок на торрент-файлы, которые содержат только списки хеш-сумм, убедительная просьба с жалобами обращаться напрямую к пользователю. Файлы для обмена на трекере предоставлены пользователями сайта, и администрация не несёт ответственности за их содержание. Просьба не заливать файлы, защищенные авторскими правами, а также файлы нелегального содержания!


    _________________
    [Профиль] [ЛС]
    Показать сообщения:    
    Ответить на тему

    Текущее время: Сегодня, в 08:01

    Часовой пояс: GMT + 2



    Вы не можете начинать темы
    Вы не можете отвечать на сообщения
    Вы не можете редактировать свои сообщения
    Вы не можете удалять свои сообщения
    Вы не можете голосовать в опросах
    Вы не можете прикреплять файлы к сообщениям
    Вы не можете скачивать файлы