BitTorrentTracker PerecTracker.org
BitTorrentTracker PerecTracker.org
    
Регистрация  ·  Вход
 
 · 
Забыли пароль?

  • Элвин и бурундуки: Грандиозное бурундуключение / Alvin And The Chipmunks The Road Chip (Уолт Бекер / Walt Becker) [2015, США, комедия, приключения, семейный, BDRip-AVC] Dub (iTunes) + Dub (Ukr iTunes) + Sub Rus, Ukr, Eng + Original Eng

    Ответить на тему
     
    Автор Сообщение

    rechyn

    Создавать темы 06-Мар-2016 17:41

           

    [Цитировать]

    Элвин и бурундуки: Грандиозное бурундуключение
    Alvin And The Chipmunks The Road Chip
    «Fast & furry-ous»
    -Страна: США
    Жанр: комедия, приключения, семейный
    Год выпуска: 2015
    Продолжительность: 01:32:00
    Перевод: Профессиональный (дублированный) iTunes
    Перевод 2: Профессиональный (дублированный) Ukr Tunes
    Cубтитры: Rus (Forced, Full), Ukr (Full), Eng (SDH)
    Оригинальная аудиодорожка: английский
    Режиссер: Уолт Бекер / Walt Becker
    В ролях:
    Джейсон Ли | Jason Lee
    Джастин Лонг, Мэттью Грей Гублер ,Джесси МакКартни ,Кимберли Уильямс-Пэйсли, Джош Грин, Тони Хейл, Белла Торн ,Эдди Стиплз, Кристина Эпплгейт-ОписаниеКогда Бурундуки видят, что Дэйв берет с собой коробочку с кольцом в поездку в Майами, они отчаянно пытаются помешать ему сделать предложение его девушке — из опасения, что мачеха и сводный брат внесут перемены в их семейную идиллию. Но после того, как их помещают в черный список за хулиганское поведение в самолете, Элвин, Саймон, Теодор и их будущий брат Майлз отправляются в самое важное путешествие в их жизни через всю страну, чтобы успеть помешать помолвке.-Сэмпл

    IMDb: 4.30 (4319)
    Качество видео: BDRip-AVC Alvin.And.The.Chipmunks.The.Road.Chip.2015.1080p.BluRay.REMUX.AVC.DTS-HD.MA.7.1-RARBG
    Формат видео: MKV
    Видео: AVC 3370 Kbps 1136 x 614 (1.850) 23.976 fps
    Аудио: AC-3 384 Kbps 6 channels, 48.0 KHz Rus iTunes
    Аудио 2: AC-3 192 Kbps 2 channels, 44.1 KHz Ukr iTunes
    Аудио 3: AC-3 448 Kbps 6 channels, 48.0 KHz Eng
    Формат субтитров: softsub (SRT)
    MediaInfo | Log

    Log

    x264 [info]: frame I:1483 Avg QP:15.63 size:103675
    x264 [info]: frame P:31559 Avg QP:17.46 size: 35508
    x264 [info]: frame B:99310 Avg QP:19.78 size: 11184
    x264 [info]: consecutive B-frames: 2.7% 3.4% 12.7% 29.9% 18.7% 23.9% 6.0% 0.9% 0.3% 0.2% 0.2% 0.5% 0.1% 0.1% 0.4%
    x264 [info]: mb I I16..4: 6.9% 73.5% 19.6%
    x264 [info]: mb P I16..4: 1.1% 13.6% 2.3% P16..4: 28.6% 32.0% 12.5% 2.2% 0.2% skip: 7.5%
    x264 [info]: mb B I16..4: 0.2% 1.6% 0.3% B16..8: 30.9% 20.4% 3.8% direct: 5.1% skip:37.7% L0:41.4% L1:43.0% BI:15.6%
    x264 [info]: 8x8 transform intra:78.4% inter:61.3%
    x264 [info]: direct mvs spatial:100.0% temporal:0.0%
    x264 [info]: coded y,uvDC,uvAC intra: 88.1% 93.3% 82.7% inter: 19.8% 24.9% 11.6%
    x264 [info]: i16 v,h,dc,p: 23% 18% 4% 56%
    x264 [info]: i8 v,h,dc,ddl,ddr,vr,hd,vl,hu: 12% 10% 6% 9% 12% 13% 12% 13% 14%
    x264 [info]: i4 v,h,dc,ddl,ddr,vr,hd,vl,hu: 16% 11% 5% 8% 13% 13% 12% 10% 11%
    x264 [info]: i8c dc,h,v,p: 41% 22% 18% 19%
    x264 [info]: Weighted P-Frames: Y:2.9% UV:2.3%
    x264 [info]: ref P L0: 48.4% 10.6% 17.8% 5.9% 5.1% 3.4% 3.1% 1.6% 1.5% 1.2% 1.3% 0.2% 0.0%
    x264 [info]: ref B L0: 74.2% 11.3% 5.4% 2.8% 2.0% 1.6% 1.2% 0.8% 0.4% 0.2%
    x264 [info]: ref B L1: 93.3% 6.7%
    x264 [info]: kb/s:3456.43
    x264 [total]: encoded 132352 frames, 6.97 fps, 3456.43 kb/s, duration 5:16:41.63
    Format : Matroska
    Format version : Version 4 / Version 2
    File size : 2.88 GiB
    Duration : 1h 32mn
    Overall bit rate : 4 483 Kbps
    Encoded date : UTC 2016-03-05 20:06:39
    Writing application : mkvmerge v6.7.0 ('Back to the Ground') 32bit built on Jan 8 2014 15:03:17
    Writing library : libebml v1.3.0 + libmatroska v1.4.1
    Video
    ID : 1
    Format : AVC
    Format/Info : Advanced Video Codec
    Format profile : High@L4.1
    Format settings, CABAC : Yes
    Format settings, ReFrames : 11 frames
    Codec ID : V_MPEG4/ISO/AVC
    Duration : 1h 32mn
    Bit rate : 3 370 Kbps
    Width : 1 136 pixels
    Height : 614 pixels
    Display aspect ratio : 1.85:1
    Frame rate mode : Constant
    Frame rate : 23.976 (24000/1001) fps
    Color space : YUV
    Chroma subsampling : 4:2:0
    Bit depth : 8 bits
    Scan type : Progressive
    Bits/(Pixel*Frame) : 0.201
    Stream size : 2.17 GiB (75%)
    Title : Alvin and the Chipmunks: The Road Chip (2015) [perectracker.org]
    Writing library : x264 core 148 r2638kMod 7599210
    Encoding settings : cabac=1 / ref=11 / deblock=1:-2:-2 / analyse=0x3:0x133 / me=umh / subme=11 / psy=1 / fade_compensate=0.00 / psy_rd=1.00:0.05 / mixed_ref=1 / me_range=48 / chroma_me=1 / trellis=2 / 8x8dct=1 / cqm=0 / deadzone=21,11 / fast_pskip=0 / chroma_qp_offset=-3 / threads=12 / lookahead_threads=3 / sliced_threads=0 / nr=0 / decimate=1 / interlaced=0 / bluray_compat=0 / constrained_intra=0 / fgo=0 / bframes=14 / b_pyramid=2 / b_adapt=2 / b_bias=0 / direct=3 / weightb=1 / open_gop=0 / weightp=2 / keyint=250 / keyint_min=23 / scenecut=40 / intra_refresh=0 / rc_lookahead=60 / rc=crf / mbtree=0 / crf=17.5000 / qcomp=0.60 / qpmin=0 / qpmax=69 / qpstep=4 / vbv_maxrate=50000 / vbv_bufsize=62500 / crf_max=0.0 / nal_hrd=none / filler=0 / ip_ratio=1.40 / pb_ratio=1.30 / aq=3:0.90
    Language : English
    Default : Yes
    Forced : No
    Audio #1
    ID : 2
    Format : AC-3
    Format/Info : Audio Coding 3
    Mode extension : CM (complete main)
    Format settings, Endianness : Big
    Codec ID : A_AC3
    Duration : 1h 32mn
    Bit rate mode : Constant
    Bit rate : 384 Kbps
    Channel(s) : 6 channels
    Channel positions : Front: L C R, Side: L R, LFE
    Sampling rate : 48.0 KHz
    Frame rate : 31.250 fps (1536 spf)
    Compression mode : Lossy
    Stream size : 253 MiB (9%)
    Title : iTunes
    Language : Russian
    Default : Yes
    Forced : No
    Audio #2
    ID : 3
    Format : AC-3
    Format/Info : Audio Coding 3
    Mode extension : CM (complete main)
    Format settings, Endianness : Big
    Codec ID : A_AC3
    Duration : 1h 32mn
    Bit rate mode : Constant
    Bit rate : 192 Kbps
    Channel(s) : 2 channels
    Channel positions : Front: L R
    Sampling rate : 44.1 KHz
    Frame rate : 28.711 fps (1536 spf)
    Compression mode : Lossy
    Stream size : 126 MiB (4%)
    Title : iTunes
    Language : Ukrainian
    Default : No
    Forced : No
    Audio #3
    ID : 4
    Format : AC-3
    Format/Info : Audio Coding 3
    Mode extension : CM (complete main)
    Format settings, Endianness : Big
    Codec ID : A_AC3
    Duration : 1h 32mn
    Bit rate mode : Constant
    Bit rate : 448 Kbps
    Channel(s) : 6 channels
    Channel positions : Front: L C R, Side: L R, LFE
    Sampling rate : 48.0 KHz
    Frame rate : 31.250 fps (1536 spf)
    Compression mode : Lossy
    Stream size : 295 MiB (10%)
    Title : Original
    Language : English
    Default : No
    Forced : No
    Text #1
    ID : 5
    Format : UTF-8
    Codec ID : S_TEXT/UTF8
    Codec ID/Info : UTF-8 Plain Text
    Title : Forced
    Language : Russian
    Default : Yes
    Forced : No
    Text #2
    ID : 6
    Format : UTF-8
    Codec ID : S_TEXT/UTF8
    Codec ID/Info : UTF-8 Plain Text
    Title : Full
    Language : Russian
    Default : No
    Forced : No
    Text #3
    ID : 7
    Format : UTF-8
    Codec ID : S_TEXT/UTF8
    Codec ID/Info : UTF-8 Plain Text
    Title : Full
    Language : Ukrainian
    Default : No
    Forced : No
    Text #4
    ID : 8
    Format : UTF-8
    Codec ID : S_TEXT/UTF8
    Codec ID/Info : UTF-8 Plain Text
    Title : SDH
    Language : English
    Default : No
    Forced : No
    Menu
    00:00:00.000 : en:Chapter 01
    00:05:35.209 : en:Chapter 02
    00:08:09.322 : en:Chapter 03
    00:12:31.041 : en:Chapter 04
    00:16:40.332 : en:Chapter 05
    00:20:11.084 : en:Chapter 06
    00:22:45.447 : en:Chapter 07
    00:24:56.870 : en:Chapter 08
    00:27:57.217 : en:Chapter 09
    00:30:30.829 : en:Chapter 10
    00:35:27.750 : en:Chapter 11
    00:39:55.059 : en:Chapter 12
    00:42:55.531 : en:Chapter 13
    00:45:58.505 : en:Chapter 14
    00:49:43.480 : en:Chapter 15
    00:55:16.563 : en:Chapter 16
    00:58:13.490 : en:Chapter 17
    01:01:46.244 : en:Chapter 18
    01:04:39.000 : en:Chapter 19
    01:09:26.662 : en:Chapter 20
    01:13:25.859 : en:Chapter 21
    01:16:30.877 : en:Chapter 22
    01:21:39.811 : en:Chapter 23
    01:25:03.932 : en:Chapter 24

    Скриншоты




    Скачать .torrent

    Скачать торрент-файл бесплатно и на максимальной скорости!

    Как скачивать? · Что такое торрент? · Рейтинг и ограничения

    !ВНИМАНИЕ!
    Сайт не распространяет и не хранит электронные версии произведений, а занимается лишь лишь предоставлением доступа к создаваемому пользователями каталогу ссылок на торрент-файлы, которые содержат только списки хеш-сумм, убедительная просьба с жалобами обращаться напрямую к пользователю. Файлы для обмена на трекере предоставлены пользователями сайта, и администрация не несёт ответственности за их содержание. Просьба не заливать файлы, защищенные авторскими правами, а также файлы нелегального содержания!


    _________________
    [Профиль] [ЛС]
    Показать сообщения:    
    Ответить на тему

    Текущее время: Сегодня, в 20:01

    Часовой пояс: GMT + 2



    Вы не можете начинать темы
    Вы не можете отвечать на сообщения
    Вы не можете редактировать свои сообщения
    Вы не можете удалять свои сообщения
    Вы не можете голосовать в опросах
    Вы не можете прикреплять файлы к сообщениям
    Вы не можете скачивать файлы