BitTorrentTracker PerecTracker.org
BitTorrentTracker PerecTracker.org
    
Регистрация  ·  Вход
 
 · 
Забыли пароль?

  • Пармская обитель / La chartreuse de Parme / The Charterhouse of Parma (Чинция Торрини / Cinzia Th. Torrini) [2012, Франция, Италия, драма, экранизация, DVB] Original (Fre) + Sub (Rus, Eng, Fre, Deu)

    Ответить на тему
     
    Автор Сообщение

    rechyn

    Создавать темы 06-Мар-2016 13:30

           

    [Цитировать]

    Пармская обитель
    La chartreuse de Parme-Страна: Франция, Италия
    Жанр: драма, экранизация
    Год выпуска: 2012
    Продолжительность: 03:28:28 (01:43:08 + 01:45:20)
    Перевод: Субтитры (перевод Ольги Першиной, Éclair Group)
    Cубтитры: русские
    Оригинальная аудиодорожка: французский
    Режиссер: Чинция Торрини / Cinzia Th. TorriniВ ролях: Родриго Гирао Диас / Rodrigo Guirao Díaz (Fabrice Del Dongo), Мари-Жозе Кроз / Marie-Josée Croze (Gina Duchesse de Sanseverina), Ипполит Жирардо / Hippolyte Girardot (Conte Mosca), Франсуа Берлеан / François Berléand (Le prince de Parme), Алессандра Мастронарди / Alessandra Mastronardi (Clelia Conti)
    Описание: Адаптация одноименного романа Стендаля (1839).
    Юный аристократ Фабрицио дель Донго, узнав в 1815 году о возвращении Наполеона с острова Эльба, покидает стоящий на берегу озера Комо замок отца-реакционера и спешит в Бельгию, чтобы на стороне своего кумира принять участие в битве при Ватерлоо. По возвращении на родину Фабрицио подвергается преследованию как изменник и вольнодумец. По совету тайно влюблённой в него тётки, герцогини де Сансеверина, Фабрицио принимает решение сделать карьеру в церкви, хотя не чувствует к этому подлинного призвания. Маленький двор пармского герцогства, где одну из первых скрипок играет граф Моска — любовник и будущий муж герцогини де Сансеверина, бурлит интригами. Прежде чем занять в Парме пост архиепископа, Фабрицио убивает на дуэли соперника за внимание одной актрисы и оказывается в заточении в неприступной крепости, где его спасает от верной гибели влюблённая в него Клелия Конти, дочь коменданта…
    Доп. информация: Hot Bird (13.0°E) TV5MONDE Europe DVB-S. 2-х-серийный телефильм.
    Награда Lauriers de la Radio et de la Télévision du Club Audiovisuel de Paris 2013 за лучший художественный фильм.

    Качество видео: DVB
    Формат видео: TS
    Видео: MPEG Video 2, 720x576@768x576 (4:3), 25 fps, ~3240 kbps avg, 0.313 bit/pixel
    Аудио: MPEG Audio 2, 2 ch, 48 kHz, 192 kbps - французский
    Формат субтитров: PGS

    MediaInfo

    GeneralID : 1 (0x1)Complete name : [apreder]La_chartreuse_de_Parme_Pt.1(2012)DVB.tsFormat : MPEG-TSFile size : 2.60 GiBDuration : 1h 43mnOverall bit rate mode : VariableOverall bit rate : 3 613 KbpsMaximum Overall bit rate : 35.5 Mbps
    VideoID : 4113 (0x1011)Menu ID : 1 (0x1)Format : MPEG VideoFormat version : Version 2Format profile : Main@MainFormat settings, BVOP : YesFormat settings, Matrix : CustomFormat settings, GOP : M=4, N=12Format settings, picture structure : FrameCodec ID : 2Duration : 1h 43mnBit rate mode : VariableBit rate : 3 240 KbpsWidth : 720 pixelsHeight : 576 pixelsDisplay aspect ratio : 16:9Frame rate : 25.000 fpsStandard : PALColor space : YUVChroma subsampling : 4:2:0Bit depth : 8 bitsScan type : InterlacedScan order : Top Field FirstCompression mode : LossyBits/(Pixel*Frame) : 0.313Time code of first frame : 00:00:00:00Time code source : Group of pictures headerGOP, Open/Closed : OpenGOP, Open/Closed of first frame : ClosedStream size : 2.33 GiB (90%)
    AudioID : 4352 (0x1100)Menu ID : 1 (0x1)Format : MPEG AudioFormat version : Version 1Format profile : Layer 2Mode : Joint stereoMode extension : Intensity Stereo + MS StereoCodec ID : 4Duration : 1h 43mnBit rate mode : ConstantBit rate : 192 KbpsChannel(s) : 2 channelsSampling rate : 48.0 KHzCompression mode : LossyStream size : 142 MiB (5%)Language : French
    Text #1ID : 4608 (0x1200)Menu ID : 1 (0x1)Format : PGSCodec ID : 144Duration : 1h 43mnDelay relative to video : 1s 560msLanguage : Russian
    Text #2ID : 4609 (0x1201)Menu ID : 1 (0x1)Format : PGSCodec ID : 144Duration : 1h 42mnDelay relative to video : 2s 560msLanguage : English
    Text #3ID : 4610 (0x1202)Menu ID : 1 (0x1)Format : PGSCodec ID : 144Language : French
    Text #4ID : 4611 (0x1203)Menu ID : 1 (0x1)Format : PGSCodec ID : 144Duration : 1h 42mnDelay relative to video : 2s 560msLanguage : German
    Text #5ID : 4612 (0x1204)Menu ID : 1 (0x1)Format : PGSCodec ID : 144Duration : 1h 42mnDelay relative to video : 2s 560msLanguage : Dutch
    Text #6ID : 4613 (0x1205)Menu ID : 1 (0x1)Format : PGSCodec ID : 144Duration : 1h 42mnDelay relative to video : 2s 560msLanguage : Romanian

    Скриншот c названием фильма

    Скриншоты

    Резервные скриншоты


    -[1'032]
    Скачать .torrent

    Скачать торрент-файл бесплатно и на максимальной скорости!

    Как скачивать? · Что такое торрент? · Рейтинг и ограничения

    !ВНИМАНИЕ!
    Сайт не распространяет и не хранит электронные версии произведений, а занимается лишь лишь предоставлением доступа к создаваемому пользователями каталогу ссылок на торрент-файлы, которые содержат только списки хеш-сумм, убедительная просьба с жалобами обращаться напрямую к пользователю. Файлы для обмена на трекере предоставлены пользователями сайта, и администрация не несёт ответственности за их содержание. Просьба не заливать файлы, защищенные авторскими правами, а также файлы нелегального содержания!


    _________________
    [Профиль] [ЛС]
    Показать сообщения:    
    Ответить на тему

    Текущее время: Сегодня, в 22:21

    Часовой пояс: GMT + 2



    Вы не можете начинать темы
    Вы не можете отвечать на сообщения
    Вы не можете редактировать свои сообщения
    Вы не можете удалять свои сообщения
    Вы не можете голосовать в опросах
    Вы не можете прикреплять файлы к сообщениям
    Вы не можете скачивать файлы