BitTorrentTracker PerecTracker.org
BitTorrentTracker PerecTracker.org
    
Регистрация  ·  Вход
 
 · 
Забыли пароль?

  • [ATV3] Иван Царевич и Серый Волк 3 (Дарина Шмидт) [2015, Россия, Мультфильм, приключения, семейный, WEB-DL, HD (1080p)] Original

    Ответить на тему
     
    Автор Сообщение

    Light

    Создавать темы 06-Мар-2016 13:29

           

    [Цитировать]

    Иван Царевич и Серый Волк 3
    -
    6.785 / 10
    -Год выпуска: 2015
    Страна: Россия
    Жанр: Мультфильм, приключения, семейный
    Продолжительность: 01:16:55
    Перевод: Не требуется
    Оригинальная аудиодорожка: Есть
    Cубтитры: Нет
    Режиссёр: Дарина Шмидт
    Сценарий: Леонид Барац, Ростислав Хаит, Сергей Петрейков
    Продюсер: Александр Боярский, Сергей Сельянов
    В ролях: Никита Ефремов, Иван Охлобыстин, Михаил Боярский, Артур Смольянинов, Татьяна Бунина, Михаил Хрусталев, Дмитрий Высоцкий, Олег Куликович, Анатолий Петров, Роман Никитин
    Сборы в России: $9 489 781
    Премьера (РФ): 1 января 2016, «Наше Кино»
    Описание: Царь Тридевятого царства, в честь своего 150-летия решил, что с него хватит — пора на заслуженный отдых. «Я устал. Я ухожу», — заявил самодержец и с удочкой и ведёрком удалился в деревенскую глушь. А оберегать государство остались Иван с Серым Волком. Вот только Василиса, жена Ивана, заявила, что свадебного путешествия у неё не было, заграницу она не видела, «постить» в инстаграм решительно нечего и вообще.-Качество исходника: WEB-DL 1080p (BlueBird)
    Качество: WEB-DL
    Тип: HD (1080p)
    Контейнер: M4V
    Видео: H.264, 1920x1080, 16:9, 5 207 Kbps, 24.000 fps
    Аудио 1: Русский/Оригинальная дорожка , AAC / 2.0 / 157 Kbps / 48.0 KHz
    Аудио 2: Русский/Оригинальная дорожка , AC-3 / 5.1 / 384 Kbps / 48.0 KHz
    -

    iTunes Meta Tags

    Sort Name: Иван Царевич и Серый Волк 3
    XID: Apple:vendor_id:2015-705346
    contentID: 1062332445
    Copyright: © 2016 Наше Кино
    Screenwriters: Леонид Барац, Ростислав Хаит, Сергей Петрейков
    Producers: Александр Боярский, Сергей Сельянов
    Director: Дарина Шмидт
    Cast: Никита Ефремов, Иван Охлобыстин, Михаил Боярский, Артур Смольянинов, Татьяна Бунина, Михаил Хрусталев, Дмитрий Высоцкий, Олег Куликович, Анатолий Петров, Роман Никитин
    Studio: Кинокампания СТВ, Анимационная студия Мельница
    Rating: 133
    Long Description: Царь Тридевятого царства, в честь своего 150-летия решил, что с него хватит - пора на заслуженный отдых. "Я устал. Я ухожу", - заявил самодержец и с удочкой и ведёрком удалился в деревенскую глушь. А оберегать государство остались Иван с Серым Волком. Вот только Василиса, жена Ивана, заявила, что свадебного путешествия у неё не было, заграницу она не видела, "постить" в инстаграм решительно нечего и вообще.
    Иван спорить не стал, а вместе с Василисой, Котом - ученым и Серым Волком, погрузился на ковер-самолет и отправился в путь. А за главного в стране герои оставили самое обычное огородное пугало... Но пока компания шаталась по Миланам и Парижам, Пугало ожило и начало наводить свои порядки в Тридевятом царстве...
    Description: Царь Тридевятого царства, в честь своего 150-летия решил, что с него хватит - пора на заслуженный отдых. "Я устал. Я ухожу", - заявил самодержец и с удочкой и ведёрком удалился в деревенскую глушь. А оберегать государство остались Иван с Серым Волком.
    Release Date: 2015-01-01T08:00:00Z
    Genre: Русское кино
    Artist: Дарина Шмидт
    Name: Иван Царевич и Серый Волк 3

    MediaInfo

    General
    Complete name : /Users/imac/HandBrake/Ivan.Tzarevich.i.Seruy.Volk.3.WEB-DL.1080p.m4v
    Format : MPEG-4
    Codec ID : M4V  (M4V /M4A /mp42/isom)
    File size : 3.09 GiB
    Duration : 1h 16mn
    Overall bit rate mode : Variable
    Overall bit rate : 5 754 Kbps
    Movie name : Иван Царевич и Серый Волк 3
    Performer : Дарина Шмидт
    Director : Дарина Шмидт
    Actor : Никита Ефремов / Иван Охлобыстин / Михаил Боярский / Артур Смольянинов / Татьяна Бунина / Михаил Хрусталев / Дмитрий Высоцкий / Олег Куликович / Анатолий Петров / Роман Никитин
    Screenplay by : Леонид Барац / Ростислав Хаит / Сергей Петрейков
    Producer : Александр Боярский / Сергей Сельянов
    Production studio : Кинокампания СТВ, Анимационная студия Мельница
    Genre : Русское кино
    ContentType : Short Film
    Description : Царь Тридевятого царства, в честь своего 150-летия решил, что с него хватит - пора на заслуженный отдых. "Я устал. Я ухожу", - заявил самодержец и с удочкой и ведёрком удалился в деревенскую глушь. А оберегать государство остались Иван с Серым Волком.
    Recorded date : UTC 2015-01-01 08:00:00
    Encoded date : UTC 2016-02-06 11:00:59
    Tagged date : UTC 2016-02-06 11:02:55
    Copyright : © 2016 Наше Кино
    Cover : Yes
    Rating : None
    Title/Sort : Иван Царевич и Серый Волк 3
    LongDescription : Царь Тридевятого царства, в честь своего 150-летия решил, что с него хватит - пора на заслуженный отдых. "Я устал. Я ухожу", - заявил самодержец и с удочкой и ведёрком удалился в деревенскую глушь. А оберегать государство остались Иван с Серым Волком. Вот только Василиса, жена Ивана, заявила, что свадебного путешествия у неё не было, заграницу она не видела, "постить" в инстаграм решительно нечего и вообще.   Иван спорить не стал, а вместе с Василисой, Котом - ученым и Серым Волком, погрузился на ковер-самолет и отправился в путь. А за главного в стране герои оставили самое обычное огородное пугало... Но пока компания шаталась по Миланам и Парижам, Пугало ожило и начало наводить свои порядки в Тридевятом царстве...
    AppleStoreCatalogID : 1062332445
    Vendor : Apple:vendor_id:2015-705346
    ContentRating : ru-movie|6+|150|
    Video #1
    ID : 1
    Format : AVC
    Format/Info : Advanced Video Codec
    Format profile : High@L4
    Format settings, CABAC : Yes
    Format settings, ReFrames : 4 frames
    Codec ID : avc1
    Codec ID/Info : Advanced Video Coding
    Duration : 1h 16mn
    Bit rate : 5 207 Kbps
    Width : 1 920 pixels
    Height : 1 080 pixels
    Display aspect ratio : 16:9
    Frame rate mode : Variable
    Frame rate : 24.000 fps
    Minimum frame rate : 23.810 fps
    Maximum frame rate : 24.390 fps
    Color space : YUV
    Chroma subsampling : 4:2:0
    Bit depth : 8 bits
    Scan type : Progressive
    Bits/(Pixel*Frame) : 0.105
    Stream size : 2.80 GiB (90%)
    Title : Main Program
    Language : Russian
    Encoded date : UTC 2016-02-06 11:00:59
    Tagged date : UTC 2016-02-06 11:01:55
    Color range : Limited
    Color primaries : BT.709
    Transfer characteristics : BT.709
    Matrix coefficients : BT.709
    Menus : 4,5
    Video #2
    ID : 5
    Format : JPEG
    Codec ID : jpeg
    Duration : 1h 16mn
    Bit rate mode : Variable
    Bit rate : 1 027 bps
    Width : 640 pixels
    Height : 360 pixels
    Display aspect ratio : 16:9
    Frame rate mode : Variable
    Frame rate : 0.003 fps
    Minimum frame rate : 0.002 fps
    Maximum frame rate : 0.006 fps
    Color space : YUV
    Chroma subsampling : 4:2:0
    Bit depth : 8 bits
    Compression mode : Lossy
    Bits/(Pixel*Frame) : 1.486
    Stream size : 627 KiB (0%)
    Title : Chapter Images
    Language : Russian
    Default : No
    Encoded date : UTC 2016-02-06 11:02:01
    Tagged date : UTC 2016-02-06 11:02:01
    Menu For : 1
    Audio #1
    ID : 2
    Format : AAC
    Format/Info : Advanced Audio Codec
    Format profile : LC
    Codec ID : 40
    Duration : 1h 16mn
    Bit rate mode : Variable
    Bit rate : 157 Kbps
    Maximum bit rate : 239 Kbps
    Channel(s) : 2 channels
    Channel positions : Front: L R
    Sampling rate : 48.0 KHz
    Frame rate : 46.875 fps (1024 spf)
    Compression mode : Lossy
    Stream size : 86.2 MiB (3%)
    Title : Russian Stereo
    Language : Russian
    Default : Yes
    Alternate group : 1
    Encoded date : UTC 2016-02-06 11:00:59
    Tagged date : UTC 2016-02-06 11:01:02
    Fallback From : 3
    Audio #2
    ID : 3
    Format : AC-3
    Format/Info : Audio Coding 3
    Mode extension : CM (complete main)
    Format settings, Endianness : Big
    Codec ID : ac-3
    Duration : 1h 16mn
    Bit rate mode : Constant
    Bit rate : 384 Kbps
    Channel(s) : 6 channels
    Channel positions : Front: L C R, Side: L R, LFE
    Sampling rate : 48.0 KHz
    Frame rate : 31.250 fps (1536 spf)
    Bit depth : 16 bits
    Compression mode : Lossy
    Stream size : 211 MiB (7%)
    Title : Russian DD 5.1
    Language : Russian
    Default : Inherited From: 2
    Alternate group : 1
    Encoded date : UTC 2016-02-06 11:00:59
    Tagged date : UTC 2016-02-06 11:01:01
    Fallback To : 2
    Menu #1
    00:00:00.000 : Глава 1
    00:03:39.541 : Глава 2
    00:06:27.499 : Глава 3
    00:10:29.040 : Глава 4
    00:15:02.873 : Глава 5
    00:20:07.081 : Глава 6
    00:25:29.414 : Глава 7
    00:30:57.080 : Глава 8
    00:36:55.705 : Глава 9
    00:41:58.871 : Глава 10
    00:46:41.537 : Глава 11
    00:51:33.245 : Глава 12
    00:57:08.286 : Глава 13
    01:01:36.911 : Глава 14
    01:07:09.369 : Глава 15
    Menu #2
    ID : 4
    Codec ID : text
    Duration : 1h 16mn
    Language : Russian
    Encoded date : UTC 2016-02-06 11:01:56
    Tagged date : UTC 2016-02-06 11:01:56
    Menu For : 1
    00:00:00.000 : Глава 1
    00:03:39.541 : Глава 2
    00:06:27.499 : Глава 3
    00:10:29.040 : Глава 4
    00:15:02.873 : Глава 5
    00:20:07.081 : Глава 6
    00:25:29.414 : Глава 7
    00:30:57.080 : Глава 8
    00:36:55.705 : Глава 9
    00:41:58.871 : Глава 10
    00:46:41.537 : Глава 11
    00:51:33.245 : Глава 12
    00:57:08.286 : Глава 13
    01:01:36.911 : Глава 14
    01:07:09.369 : Глава 15
    Bit rate mode : VBR

    Скриншоты

    -

    Релиз подготовлен для просмотра на Apple TV, iPad, iPhone, iPod Touch.
    Для просмотра данного релиза на компьютере с ОС Windows рекомендуется использовать VLC media player
    Скачать .torrent

    Скачать торрент-файл бесплатно и на максимальной скорости!

    Как скачивать? · Что такое торрент? · Рейтинг и ограничения

    !ВНИМАНИЕ!
    Сайт не распространяет и не хранит электронные версии произведений, а занимается лишь лишь предоставлением доступа к создаваемому пользователями каталогу ссылок на торрент-файлы, которые содержат только списки хеш-сумм, убедительная просьба с жалобами обращаться напрямую к пользователю. Файлы для обмена на трекере предоставлены пользователями сайта, и администрация не несёт ответственности за их содержание. Просьба не заливать файлы, защищенные авторскими правами, а также файлы нелегального содержания!


    _________________
    [Профиль] [ЛС]
    Показать сообщения:    
    Ответить на тему

    Текущее время: Сегодня, в 22:22

    Часовой пояс: GMT + 2



    Вы не можете начинать темы
    Вы не можете отвечать на сообщения
    Вы не можете редактировать свои сообщения
    Вы не можете удалять свои сообщения
    Вы не можете голосовать в опросах
    Вы не можете прикреплять файлы к сообщениям
    Вы не можете скачивать файлы