BitTorrentTracker PerecTracker.org
BitTorrentTracker PerecTracker.org
    
Регистрация  ·  Вход
 
 · 
Забыли пароль?

  • Омерзительная восьмерка / The Hateful Eight (Квентин Тарантино / Quentin Tarantino) [2015, США, вестерн, HDRip] VO (Есарев)

    Ответить на тему
     
    Автор Сообщение

    rechyn

    Создавать темы 06-Мар-2016 13:29

           

    [Цитировать]

    Омерзительная восьмерка / The Hateful Eight
    Страна: США
    Жанр: вестерн
    Год выпуска: 2015
    Продолжительность: 02:47:49
    Перевод: Одноголосый закадровый Есарев
    Cубтитры: нет
    Оригинальная аудиодорожка: нет
    Режиссер: Квентин Тарантино / Quentin Tarantino
    В ролях: Курт Рассел, Сэмюэл Л. Джексон, Тим Рот, Майкл Мэдсен, Дженнифер Джейсон Ли, Ченнинг Татум, Уолтон Гоггинс, Зои Белл, Брюс Дерн, Демиан БиширВ переводе присутствует Ненормативная лексика!!!!Описание: США после Гражданской войны. Легендарный охотник за головами Джон Рут по кличке Вешатель конвоирует заключенную. По пути к ним прибивается еще один охотник. Снежная буря вынуждает всех троих искать укрытие в лавке на отшибе, где уже расположилась весьма пестрая компания: генерал, шериф, мексиканец, француз и ковбой… И один из них — не тот, за кого себя выдает.
    Сэмпл: http://multi-up.com/1091877
    Качество видео: HDRip (исходник не известен)
    Формат видео: AVI
    Видео: Xvid 720x256 23.976fps 1 403 Kbps
    Аудио: Dolby AC3 48000Hz 6ch 448kbps

    MediaInfo

    Format : AVI
    Format/Info : Audio Video Interleave
    Format profile : OpenDML
    File size : 2.18 GiB
    Duration : 2h 47mn
    Overall bit rate : 1 863 Kbps
    Writing application : VirtualDubModRus 1.5.10.2 (build 2542/release)
    Video
    ID : 0
    Format : MPEG-4 Visual
    Format profile : Advanced Simple@L5
    Format settings, BVOP : Yes
    Format settings, QPel : No
    Format settings, GMC : No warppoints
    Format settings, Matrix : Custom
    Codec ID : XVID
    Codec ID/Hint : XviD
    Duration : 2h 47mn
    Bit rate : 1 403 Kbps
    Width : 720 pixels
    Height : 256 pixels
    Display aspect ratio : 2.813
    Frame rate : 23.976 fps
    Color space : YUV
    Chroma subsampling : 4:2:0
    Bit depth : 8 bits
    Scan type : Progressive
    Compression mode : Lossy
    Bits/(Pixel*Frame) : 0.318
    Stream size : 1.64 GiB (75%)
    Writing library : XviD 66
    Audio
    ID : 1
    Format : AC-3
    Format/Info : Audio Coding 3
    Mode extension : CM (complete main)
    Format settings, Endianness : Big
    Codec ID : 2000
    Duration : 2h 47mn
    Bit rate mode : Constant
    Bit rate : 448 Kbps
    Channel count : 6 channels
    Channel positions : Front: L C R, Side: L R, LFE
    Sampling rate : 48.0 KHz
    Bit depth : 16 bits
    Compression mode : Lossy
    Stream size : 538 MiB (24%)
    Alignment : Split accross interleaves
    Interleave, duration : 42 ms (1.00 video frame)
    Interleave, preload duration : 500 ms

    Скриншот c названием фильма

    Скриншоты

    Скачать .torrent

    Скачать торрент-файл бесплатно и на максимальной скорости!

    Как скачивать? · Что такое торрент? · Рейтинг и ограничения

    !ВНИМАНИЕ!
    Сайт не распространяет и не хранит электронные версии произведений, а занимается лишь лишь предоставлением доступа к создаваемому пользователями каталогу ссылок на торрент-файлы, которые содержат только списки хеш-сумм, убедительная просьба с жалобами обращаться напрямую к пользователю. Файлы для обмена на трекере предоставлены пользователями сайта, и администрация не несёт ответственности за их содержание. Просьба не заливать файлы, защищенные авторскими правами, а также файлы нелегального содержания!


    _________________
    [Профиль] [ЛС]
    Показать сообщения:    
    Ответить на тему

    Текущее время: Сегодня, в 20:58

    Часовой пояс: GMT + 2



    Вы не можете начинать темы
    Вы не можете отвечать на сообщения
    Вы не можете редактировать свои сообщения
    Вы не можете удалять свои сообщения
    Вы не можете голосовать в опросах
    Вы не можете прикреплять файлы к сообщениям
    Вы не можете скачивать файлы