BitTorrentTracker PerecTracker.org
BitTorrentTracker PerecTracker.org
    
Регистрация  ·  Вход
 
 · 
Забыли пароль?

  • Закрытая школа / Сезон: 2 / Серии: 1-40 из 40 (Олег Асадулин, Антон Новосельцев, Сергей Пищиков) [2011, Драма, мистика, триллер, SATRip]

    Ответить на тему
     
    Автор Сообщение

    rechyn

    Создавать темы 05-Мар-2016 21:05

           

    [Цитировать]

    Закрытая школа-Год выпуска: 2011
    Производство: Амедиа по заказу телеканала СТС
    Жанр: Драма, мистика, триллер
    Продолжительность: 00:48:00
    Субтитры: нет--Режиссёр: Олег Асадулин, Антон Новосельцев, Сергей Пищиков
    В ролях: Антон Хабаров, Татьяна Васильева, Михаил Сафронов, Юлия Агафонова, Ксения Энтелис, Виталий Емашов, Иван Гордиенко, Марина Казанкова, Алексей Коряков, Павел Прилучный, Агата Муцениеце, Татьяна Космачева, Игорь Юртаев, Андрей Негинский, Евгения Осипова, Алина Васильева и др.-Описание: Действие происходит в Подмосковье в старинной дворянской усадьбе, построенной почти 200 лет назад графом Щербатовым. После Октябрьского переворота и до конца Второй мировой войны усадьба пустовала. С 1945 по 1953 годы здесь размещался спецприёмник для детей «врагов народа». Затем с 1953 до 1980 года в ней стал работать детский дом № 8. После его закрытия усадьба снова пустовала ровно 20 лет. В конце 1999 года здание было выкуплено под частную элитную школу-пансион, в которой в наши дни и разворачивается действие.
    Сериал рассказывает о жизни учеников и преподавателей элитной школы-пансиона «Логос», расположенной в старинной усадьбе графа Щербатова посреди мрачного, но живописного леса. В их замкнутом мире все переживания намного острее, чем в обычной школьной жизни.--Релиз от
    Всплывающая реклама телеканала СТС--Сэмпл: http://multi-up.com/1091873-Качество: SATRip
    Формат: AVI
    Видео кодек: XviD
    Аудио кодек: MP3
    Видео: 704x400 (16:9), 25.000 fps, ~1425 kbps avg, 0.202 bit/pixel
    Аудио: 48.0 KHz, 2 channels, ~128 kbps

    MI

    General
    Complete name : E:\Закрытая школа (Сезон 2)\Zakrytaja.shkola.s02.e01.2011.SATRip.RiperAM.avi
    Format : AVI
    Format/Info : Audio Video Interleave
    File size : 543 MiB
    Duration : 48mn 34s
    Overall bit rate : 1 563 Kbps
    Writing application : VirtualDubMod 1.5.10.3 | www.virtualdub-fr.org || (build 2550/release)
    Writing library : VirtualDubMod build 2550/release
    Video
    ID : 0
    Format : MPEG-4 Visual
    Format profile : Advanced Simple@L5
    Format settings, BVOP : 2
    Format settings, QPel : No
    Format settings, GMC : No warppoints
    Format settings, Matrix : Default (MPEG)
    Muxing mode : Packed bitstream
    Codec ID : XVID
    Codec ID/Hint : XviD
    Duration : 48mn 34s
    Bit rate : 1 425 Kbps
    Width : 704 pixels
    Height : 400 pixels
    Display aspect ratio : 16:9
    Frame rate : 25.000 fps
    Color space : YUV
    Chroma subsampling : 4:2:0
    Bit depth : 8 bits
    Scan type : Progressive
    Compression mode : Lossy
    Bits/(Pixel*Frame) : 0.202
    Stream size : 495 MiB (91%)
    Writing library : XviD 64
    Audio
    ID : 1
    Format : MPEG Audio
    Format version : Version 1
    Format profile : Layer 3
    Mode : Joint stereo
    Mode extension : MS Stereo
    Codec ID : 55
    Codec ID/Hint : MP3
    Duration : 48mn 34s
    Bit rate mode : Constant
    Bit rate : 128 Kbps
    Channel(s) : 2 channels
    Sampling rate : 48.0 KHz
    Compression mode : Lossy
    Stream size : 44.5 MiB (8%)
    Alignment : Aligned on interleaves
    Interleave, duration : 40 ms (1.00 video frame)
    Interleave, preload duratio : 504 ms

    Скриншоты

    --
    Скачать .torrent

    Скачать торрент-файл бесплатно и на максимальной скорости!

    Как скачивать? · Что такое торрент? · Рейтинг и ограничения

    !ВНИМАНИЕ!
    Сайт не распространяет и не хранит электронные версии произведений, а занимается лишь лишь предоставлением доступа к создаваемому пользователями каталогу ссылок на торрент-файлы, которые содержат только списки хеш-сумм, убедительная просьба с жалобами обращаться напрямую к пользователю. Файлы для обмена на трекере предоставлены пользователями сайта, и администрация не несёт ответственности за их содержание. Просьба не заливать файлы, защищенные авторскими правами, а также файлы нелегального содержания!


    _________________
    [Профиль] [ЛС]
    Показать сообщения:    
    Ответить на тему

    Текущее время: Сегодня, в 00:08

    Часовой пояс: GMT + 2



    Вы не можете начинать темы
    Вы не можете отвечать на сообщения
    Вы не можете редактировать свои сообщения
    Вы не можете удалять свои сообщения
    Вы не можете голосовать в опросах
    Вы не можете прикреплять файлы к сообщениям
    Вы не можете скачивать файлы