BitTorrentTracker PerecTracker.org
BitTorrentTracker PerecTracker.org
    
Регистрация  ·  Вход
 
 · 
Забыли пароль?

  • Сны / Серии: 1-30 из 30 (Игорь Петров, Александр Пархоменко, Ева Стрельникова, Андрей Осмаловский) [2015, Детектив, драма, SATRip-AVC]

    Ответить на тему
     
    Автор Сообщение

    rechyn

    Создавать темы 05-Мар-2016 21:02

           

    [Цитировать]

    Сны -Год выпуска: 2015
    Производство: Россия, TASMENONGLTD, Телеканал ТВ-3
    Жанр: Детектив, драма
    Продолжительность: ~ 00:47:00 / Серия
    Субтитры: Нет-Режиссёр: Игорь Петров, Александр Пархоменко, Ева Стрельникова, Андрей Осмаловский
    В ролях: Александра Киреева, Алексей Крылов, Андрей Журба, Ринат Хабибулин, Тарас Мельничук, Яна Ляхович-Описание: Вещие сны, навязчивые видения, кошмары – каждый из нас хотя бы раз в жизни просыпался в холодном поту. Мы пытаемся их забыть, но делать этого ни в коем случае нельзя, ведь сны – не просто игра воображения. Это знаки, расшифровать которые поможет сериал «Сны» на ТВ-3.
 Героями проекта, стала пара ученых – психотерапевт Галина Акимова (Яна Ляхович) и нейрофизиолог Кирилл Зерлинский (Андрей Журба). С помощью современных технологий эксперты погружают пациента в особое состояние, ведут по лабиринтам сна и интерпретируют зашифрованные сигналы подсознания. Наблюдая за работой экспертов Лаборатории осознанных сновидений, каждый зритель разобраться в себе.-Релиз: SarDmitriy
    Реклама: Отсутствует
    Все раздачи сериала
    Семпл-Качество: SATRip-AVC
    Формат: MKV
    Видео кодек: AVC
    Аудио кодек: AC3
    Видео: MPEG-4, AVC, 720x400 (16:9), 25.000 fps, 1850 Kbps (0.257 bit/pixel)
    Аудио: AC3, 48.0 KHz, 2 ch, 192 Kbps, CBR

    MI

    General
    Unique ID : 186699815395119922161159462016753839110 (0x8C75139608F87BDC83E2FA9BA0EBAC06)
    Complete name : E:\TEMP\Сны_2015_SATRip_(AVC)_SarDmitriy\Сны.02.Чемпионка_2015_SATRip_(AVC)_SarDmitriy.mkv
    Format : Matroska
    Format version : Version 4 / Version 2
    File size : 667 MiB
    Duration : 45mn 40s
    Overall bit rate : 2 043 Kbps
    Encoded date : UTC 2016-01-13 22:08:16
    Writing application : mkvmerge v6.4.1 ('Omega Point') built on Sep 16 2013 22:05:10
    Writing library : libebml v1.3.0 + libmatroska v1.4.1
    Video
    ID : 1
    Format : AVC
    Format/Info : Advanced Video Codec
    Format profile : High@L3.0
    Format settings, CABAC : No
    Format settings, ReFrames : 1 frame
    Codec ID : V_MPEG4/ISO/AVC
    Duration : 45mn 40s
    Bit rate : 1 850 Kbps
    Width : 720 pixels
    Height : 400 pixels
    Display aspect ratio : 16:9
    Frame rate mode : Constant
    Frame rate : 25.000 fps
    Color space : YUV
    Chroma subsampling : 4:2:0
    Bit depth : 8 bits
    Scan type : Progressive
    Bits/(Pixel*Frame) : 0.257
    Stream size : 591 MiB (89%)
    Writing library : x264 core 116 r2019 9cc407d
    Encoding settings : cabac=0 / ref=1 / deblock=1:0:0 / analyse=0x3:0x113 / me=hex / subme=7 / psy=1 / psy_rd=1.00:0.00 / mixed_ref=0 / me_range=16 / chroma_me=1 / trellis=1 / 8x8dct=1 / cqm=0 / deadzone=21,11 / fast_pskip=1 / chroma_qp_offset=-2 / threads=3 / sliced_threads=0 / nr=0 / decimate=1 / interlaced=0 / bluray_compat=0 / constrained_intra=0 / bframes=0 / weightp=2 / keyint=250 / keyint_min=25 / scenecut=40 / intra_refresh=0 / rc_lookahead=40 / rc=2pass / mbtree=1 / bitrate=1850 / ratetol=1.0 / qcomp=0.60 / qpmin=0 / qpmax=69 / qpstep=4 / cplxblur=20.0 / qblur=0.5 / ip_ratio=1.40 / aq=1:1.00
    Default : Yes
    Forced : No
    Audio
    ID : 2
    Format : AC-3
    Format/Info : Audio Coding 3
    Mode extension : CM (complete main)
    Format settings, Endianness : Big
    Codec ID : A_AC3
    Duration : 45mn 40s
    Bit rate mode : Constant
    Bit rate : 192 Kbps
    Channel(s) : 2 channels
    Channel positions : Front: L R
    Sampling rate : 48.0 KHz
    Bit depth : 16 bits
    Compression mode : Lossy
    Stream size : 62.7 MiB (9%)
    Default : Yes
    Forced : No

    Скриншоты

    -
    Скачать .torrent

    Скачать торрент-файл бесплатно и на максимальной скорости!

    Как скачивать? · Что такое торрент? · Рейтинг и ограничения

    !ВНИМАНИЕ!
    Сайт не распространяет и не хранит электронные версии произведений, а занимается лишь лишь предоставлением доступа к создаваемому пользователями каталогу ссылок на торрент-файлы, которые содержат только списки хеш-сумм, убедительная просьба с жалобами обращаться напрямую к пользователю. Файлы для обмена на трекере предоставлены пользователями сайта, и администрация не несёт ответственности за их содержание. Просьба не заливать файлы, защищенные авторскими правами, а также файлы нелегального содержания!


    _________________
    [Профиль] [ЛС]
    Показать сообщения:    
    Ответить на тему

    Текущее время: Сегодня, в 13:53

    Часовой пояс: GMT + 2



    Вы не можете начинать темы
    Вы не можете отвечать на сообщения
    Вы не можете редактировать свои сообщения
    Вы не можете удалять свои сообщения
    Вы не можете голосовать в опросах
    Вы не можете прикреплять файлы к сообщениям
    Вы не можете скачивать файлы