BitTorrentTracker PerecTracker.org
BitTorrentTracker PerecTracker.org
    
Регистрация  ·  Вход
 
 · 
Забыли пароль?

  • Агент Картер / Agent Carter / Сезон: 2 / Серии: 1-10 из 10 (Стивен Крегг, Луис Д’Эспозито, Питер Лето) [2016, Боевик, фантастика, драма, WEB-DL 1080p] MVO (LostFilm) + Original

    Ответить на тему
     
    Автор Сообщение

    rechyn

    Создавать темы 05-Мар-2016 20:55

           

    [Цитировать]

    --Агент Картер / Agent Carter--Год выпуска: 2016
    Страна: США
    Жанр: Боевик, фантастика, драма
    Продолжительность: ~ 00:43:00-Перевод: Профессиональный (многоголосый закадровый) LostFilm-Режиссёр: Стивен Крегг, Луис Д’Эспозито, Питер Лето-В ролях: Хейли Этвелл, Джеймс Д’Арси, Чад Майкл Мюррэй, Энвер Гьокай, Ши Уигхэм, Линдси Фонсека, Бриджет Риган, Ральф Браун, Меган Фэй, Доминик Купер-Описание: История Пегги Картер. В 1946 году мир нанес Пегги серьезный удар, когда она оказывается в неудобном для нее положении с возвращением домой мужчин со сражений за границей. Работая на секретную организацию СНР (Стратегический Научный Резерв), Пегги должна найти баланс между административной работой и секретными миссиями для Говарда Старка, одновременно пытаясь жить нормальной жизнью одинокой женщины в Америке после утраты любви всей ее жизни — Стива Роджерса.- -Ссылка на предыдущие и альтернативные раздачи-Качество: WEB-DL 1080p
    Контейнер: MKV
    Видео: H.264, 1920x1080 (16:9), 23,976 fps, ~5170 kbps, 0.104 bit/pixel
    Аудио # 1: AC3, 48 kHz, 6 ch, 384 kbps - LostFilm
    Аудио # 2: AC3, 48 kHz, 6 ch, 384 kbps - оригинал
    Субтитры: английские

    Релиз

    Релиз: Grandfather61 (Skyns61)
    Работа со звуком: Grandfather61 (Skyns61)
    Дорожка #1 получена наложением выделенных голосов от «LostFilm» на центр оригинального AC3

    Список серий

    01. Леди в озере (The Lady in the Lake)
    02. Взгляд в темноту (A View in the Dark)
    03. Ангелы получше (Better Angels)
    04. Дым и зеркала (Smoke & Mirrors)
    05. Ядерное дело (The Atomic Job)
    06. Душа компании (Life of the Party)
    07. Монстры (Monsters)
    08. На пороге тайны (The Edge of Mystery)
    09. Немного песен и танцев (A Little Song and Dance)
    10. Голливудский финал (Hollywood Ending)

    MediaInfo

    Общее
    Уникальный идентификатор : 191334852588775524185048749417739295758 (0x8FF1C09037569750B1AE1D0E3D1F9C0E)
    Полное имя : G:\Films\Marvels.Agent.Carter.S02.1080p.WEB-DL\Marvel's.Agent.Carter.S02E01.1080p.WEB-DL.LostFilm.DD5.1.mkv
    Формат : Matroska
    Версия формата : Version 4 / Version 2
    Размер файла : 1,76 Гбайт
    Продолжительность : 42 м.
    Общий поток : 5941 Кбит/сек
    Дата кодирования : UTC 2016-01-24 08:18:46
    Программа кодирования : mkvmerge v8.6.1 ('Flying') 64bit
    Библиотека кодирования : libebml v1.3.3 + libmatroska v1.4.4
    Видео
    Идентификатор : 1
    Формат : AVC
    Формат/Информация : Advanced Video Codec
    Профиль формата : High@L4
    Параметр CABAC формата : Да
    Параметр ReFrames формата : 4 кадра
    Идентификатор кодека : V_MPEG4/ISO/AVC
    Продолжительность : 42 м.
    Битрейт : 5170 Кбит/сек
    Ширина : 1920 пикселей
    Высота : 1080 пикселей
    Соотношение сторон : 16:9
    Режим частоты кадров : Постоянный
    Частота кадров : 23,976 (24000/1001) кадра/сек
    Цветовое пространство : YUV
    Субдискретизация насыщенности : 4:2:0
    Битовая глубина : 8 бит
    Тип развёртки : Прогрессивная
    Бит/(Пиксели*Кадры) : 0.104
    Размер потока : 1,53 Гбайт (87%)
    Язык : English
    Default : Да
    Forced : Нет
    colour_range : Limited
    Основные цвета : BT.709
    Характеристики трансфера : BT.709
    Коэффициенты матрицы : BT.709
    Аудио #1
    Идентификатор : 2
    Формат : AC-3
    Формат/Информация : Audio Coding 3
    Расширение режима : CM (complete main)
    Параметр Endianness формата : Big
    Идентификатор кодека : A_AC3
    Продолжительность : 42 м.
    Вид битрейта : Постоянный
    Битрейт : 384 Кбит/сек
    Каналы : 6 каналов
    Расположение каналов : Front: L C R, Side: L R, LFE
    Частота : 48,0 КГц
    Частота кадров : 31,250 кадров/сек (1536 spf)
    Метод сжатия : С потерями
    Размер потока : 116 Мбайт (6%)
    Заголовок : LostFilm 5.1
    Язык : Russian
    Default : Да
    Forced : Нет
    Аудио #2
    Идентификатор : 3
    Формат : AC-3
    Формат/Информация : Audio Coding 3
    Расширение режима : CM (complete main)
    Параметр Endianness формата : Big
    Идентификатор кодека : A_AC3
    Продолжительность : 42 м.
    Вид битрейта : Постоянный
    Битрейт : 384 Кбит/сек
    Каналы : 6 каналов
    Расположение каналов : Front: L C R, Side: L R, LFE
    Частота : 48,0 КГц
    Частота кадров : 31,250 кадров/сек (1536 spf)
    Метод сжатия : С потерями
    Размер потока : 116 Мбайт (6%)
    Заголовок : original 5.1
    Язык : English
    Default : Нет
    Forced : Нет
    Текст
    Идентификатор : 4
    Формат : UTF-8
    Идентификатор кодека : S_TEXT/UTF8
    Идентификатор кодека/Информация : UTF-8 Plain Text
    Продолжительность : 41 м.
    Битрейт : 136 бит/сек
    Count of elements : 983
    Размер потока : 41,4 Кбайт (0%)
    Заголовок : CC
    Язык : English
    Default : Нет
    Forced : Нет

    Скриншоты

    Скачать .torrent

    Скачать торрент-файл бесплатно и на максимальной скорости!

    Как скачивать? · Что такое торрент? · Рейтинг и ограничения

    !ВНИМАНИЕ!
    Сайт не распространяет и не хранит электронные версии произведений, а занимается лишь лишь предоставлением доступа к создаваемому пользователями каталогу ссылок на торрент-файлы, которые содержат только списки хеш-сумм, убедительная просьба с жалобами обращаться напрямую к пользователю. Файлы для обмена на трекере предоставлены пользователями сайта, и администрация не несёт ответственности за их содержание. Просьба не заливать файлы, защищенные авторскими правами, а также файлы нелегального содержания!


    _________________
    [Профиль] [ЛС]
    Показать сообщения:    
    Ответить на тему

    Текущее время: Сегодня, в 10:39

    Часовой пояс: GMT + 2



    Вы не можете начинать темы
    Вы не можете отвечать на сообщения
    Вы не можете редактировать свои сообщения
    Вы не можете удалять свои сообщения
    Вы не можете голосовать в опросах
    Вы не можете прикреплять файлы к сообщениям
    Вы не можете скачивать файлы