BitTorrentTracker PerecTracker.org
BitTorrentTracker PerecTracker.org
    
Регистрация  ·  Вход
 
 · 
Забыли пароль?

  • Форс-мажоры / Костюмы в законе / Suits / Сезон: 5 / Серии: 1-16 (16) (Кевин Брэй, Джон Скотт) [2015, драма, WEB-DLRip] DVO (NewStudio)

    Ответить на тему
     
    Автор Сообщение

    rechyn

    Создавать темы 05-Мар-2016 20:44

           

    [Цитировать]

    Форс-мажоры | Suits---Год выпуска: 2015
    Страна: США | USA Network
    Жанр: драма
    Продолжительность: ~00:42:00-Перевод: Профессиональный (двухголосый закадровый) NewStudio-Режиссёры: Кевин Брэй, Джон Скотт и др.
    В ролях: Патрик Дж. Адамс, Гэбриел Махт, Меган Маркл, Джина Торрес, Рик Хоффман и др.
    Описание: В центре сюжета замечательный, но немотивированный молодой человек, так и не закончивший учебу в колледже. У него есть все необходимые качества, чтобы стать хорошим адвокатом, кроме диплома. Но благодаря знаниям законов улицы и напористым, не всегда честным действиям его нанимает влиятельная юридическая фирма из Манхэттена.-Качество: WEB-DLRip
    Контейнер: AVI
    Видео: XviD, 720x400 (16:9), 23.976 fps, 1542 kbps, 0.223 bit/pixel
    Аудио 1: MP3, 48 kHz, 2 ch, 128 kbps | Russian
    Аудио 2: MP3, 48 kHz, 2 ch, 128 kbps | English
    Субтитры: отсутствуют-Релиз:

    Перевод: Ptyza.
    Озвучание: Анна Тух и Константин Погодаев.
    Постер: Vortex.-Все раздачи сериала | Сэмпл | TVRage-

    Список серий

    01. Denial / Отрицание.
    02. Compensation / Компенсация.
    03. No Refills / Таблеток больше не будет.
    04. No Puedo Hacerlo / Ничего не выйдет.
    05. Toe to Toe / Лицом к лицу.
    06. Privilege / Конфиденциальность.
    07. Hitting Home / За живое.
    08. Mea Culpa / Моя вина.
    09. Uninvited Guests / Незваные гости.
    10. Faith / Вера.--11.

    Скриншоты

    MI

    Общее:
    Формат : AVI
    Формат/Информация : Audio Video Interleave
    Размер файла : 546 Мбайт
    Продолжительность : 42 м.
    Общий поток : 1812 Кбит/сек
    Программа кодирования : VirtualDubMod 1.5.10.2 (build 2540/release)
    Библиотека кодирования : VirtualDubMod build 2540/release
    Видео:
    Формат : MPEG-4 Visual
    Профиль формата : Advanced Simple@L5
    Параметр BVOP формата : 2
    Параметр QPel формата : Нет
    Параметр GMC формата : Без точки перехода
    Параметр матрицы формата : Default (MPEG)
    Идентификатор кодека : XVID
    Идентификатор кодека/Подсказка : XviD
    Продолжительность : 42 м.
    Битрейт : 1542 Кбит/сек
    Ширина : 720 пикселей
    Высота : 400 пикселей
    Соотношение сторон : 16:9
    Частота кадров : 23,976 кадра/сек
    Цветовое пространство : YUV
    Субдискретизация насыщенности : 4:2:0
    Битовая глубина : 8 бит
    Тип развёртки : Прогрессивная
    Метод сжатия : С потерями
    Бит/(Пиксели*Кадры) : 0.223
    Размер потока : 464 Мбайт (85%)
    Библиотека кодирования : XviD 73
    Аудио #1:
    Формат : MPEG Audio
    Версия формата : Version 1
    Профиль формата : Layer 3
    Режим : Joint stereo
    Расширение режима : MS Stereo
    Идентификатор кодека : 55
    Идентификатор кодека/Подсказка : MP3
    Продолжительность : 42 м.
    Вид битрейта : Постоянный
    Битрейт : 128 Кбит/сек
    Каналы : 2 канала
    Частота : 48,0 КГц
    Метод сжатия : С потерями
    Размер потока : 38,5 Мбайт (7%)
    Выравнивание : Соединение по промежуткам
    Продолжительность промежутка : 42 мс. (1,00 видеокадр)
    Время предзагрузки промежутка : 504 мс.
    Аудио #2:
    Формат : MPEG Audio
    Версия формата : Version 1
    Профиль формата : Layer 3
    Режим : Joint stereo
    Расширение режима : MS Stereo
    Идентификатор кодека : 55
    Идентификатор кодека/Подсказка : MP3
    Продолжительность : 42 м.
    Вид битрейта : Постоянный
    Битрейт : 128 Кбит/сек
    Каналы : 2 канала
    Частота : 48,0 КГц
    Метод сжатия : С потерями
    Размер потока : 38,5 Мбайт (7%)
    Выравнивание : Соединение по промежуткам
    Продолжительность промежутка : 42 мс. (1,00 видеокадр)
    Время предзагрузки промежутка : 504 мс.
    Скачать .torrent

    Скачать торрент-файл бесплатно и на максимальной скорости!

    Как скачивать? · Что такое торрент? · Рейтинг и ограничения

    !ВНИМАНИЕ!
    Сайт не распространяет и не хранит электронные версии произведений, а занимается лишь лишь предоставлением доступа к создаваемому пользователями каталогу ссылок на торрент-файлы, которые содержат только списки хеш-сумм, убедительная просьба с жалобами обращаться напрямую к пользователю. Файлы для обмена на трекере предоставлены пользователями сайта, и администрация не несёт ответственности за их содержание. Просьба не заливать файлы, защищенные авторскими правами, а также файлы нелегального содержания!


    _________________
    [Профиль] [ЛС]
    Показать сообщения:    
    Ответить на тему

    Текущее время: Сегодня, в 21:58

    Часовой пояс: GMT + 2



    Вы не можете начинать темы
    Вы не можете отвечать на сообщения
    Вы не можете редактировать свои сообщения
    Вы не можете удалять свои сообщения
    Вы не можете голосовать в опросах
    Вы не можете прикреплять файлы к сообщениям
    Вы не можете скачивать файлы