BitTorrentTracker PerecTracker.org
BitTorrentTracker PerecTracker.org
    
Регистрация  ·  Вход
 
 · 
Забыли пароль?

  • Большая свадьба / The Big Wedding (Джастин Закэм / Justin Zackham) [2013, США, комедия, BDRemux 1080p] [BRA Transfer] Dub (Парадиз) + Sub Eng + Original Eng

    Ответить на тему
     
    Автор Сообщение

    Flirldrerve

    Создавать темы 05-Мар-2016 20:41

           

    [Цитировать]

    Большая свадьба / The Big Wedding
    Страна: США
    Жанр: комедия
    Год выпуска: 2013
    Продолжительность: 01:28:57
    Перевод: Профессиональный (дублированный) Парадиз
    Cубтитры: английские
    Оригинальная аудиодорожка: английский
    -
    Режиссер: Джастин Закэм / Justin Zackham
    В ролях: Роберт Де Ниро, Дайан Китон, Кэтрин Хайгл, Сьюзен Сарандон, Бен Барнс, Аманда Сайфред, Тофер Грейс, Ана Айора, Робин Уильямс, Патриция Рэй
    -
    Описание: Молодой Алехандро Гриффин сделал предложение очаровательной Мисси О'Коннор. На свадьбу приглашены родственники и близкие с обеих сторон. В том числе и биологическая мать Алехандро - рьяная католичка из Колумбии, приходящая в ужас при слове 'развод'. Дабы не потревожить психику набожной женщины, Алехандро просит своих приемных и давно не живущих вместе родителей Дона и Элли изобразить во время свадьбы счастливую супружескую пару. Но никто даже в страшном сне не мог себе представить, кто станет избранницей их сыночка.

    Тип релиза: BDRemux 1080p
    Контейнер: MKV
    Видео: MPEG-4 AVC / NTSC 16:9 / 1920x1080 (2,40:1) / 19879 kbps / 23,976 fps / 0.400 bit/pixel / High@L4.1
    Аудио 1: Russian / DTS-HD Master Audio / 5.1 Ch / 48 kHz / 1765 kbps / 16-bit (DTS Core: 5.1 Ch / 48 kHz / 768 kbps / 16-bit) / DUB
    Аудио 2: English / DTS-HD High-Res Audio / 5.1 Ch / 96 kHz / 2046 kbps / 24-bit (DTS Core: 5.1 Ch / 48 kHz / 1509 kbps / 24-bit) / Original
    Формат субтитров: softsub (SRT)
    Навигация по главам: есть

    MediaInfo

    Общее
    Уникальный идентификатор : 183470107067384824280782798170549576159 (0x8A070EABDFF0F36EB47C764486CEE1DF)
    Полное имя : N:\BDRemux 1080p\The Big Wedding.2013.BDRemux.1080p.mkv
    Формат : Matroska
    Версия формата : Version 4 / Version 2
    Размер файла : 14,7 Гбайт
    Продолжительность : 1 ч. 28 м.
    Режим общего битрейта : Переменный
    Общий поток : 23,7 Мбит/сек
    Дата кодирования : UTC 2016-03-01 22:14:56
    Программа кодирования : mkvmerge v8.9.0 ('Father Daughter') 64bit
    Библиотека кодирования : libebml v1.3.3 + libmatroska v1.4.4
    Видео
    Идентификатор : 1
    Формат : AVC
    Формат/Информация : Advanced Video Codec
    Профиль формата : High@L4.1
    Параметр CABAC формата : Да
    Параметр ReFrames формата : 4 кадра
    Идентификатор кодека : V_MPEG4/ISO/AVC
    Продолжительность : 1 ч. 28 м.
    Вид битрейта : Переменный
    Битрейт : 19,9 Мбит/сек
    Максимальный битрейт : 35,0 Мбит/сек
    Ширина : 1920 пикселей
    Высота : 1080 пикселей
    Соотношение сторон : 16:9
    Режим частоты кадров : Постоянный
    Частота кадров : 23,976 (24000/1001) кадра/сек
    Стандарт вещания : NTSC
    Цветовое пространство : YUV
    Субдискретизация насыщенности : 4:2:0
    Битовая глубина : 8 бит
    Тип развёртки : Прогрессивная
    Бит/(Пиксели*Кадры) : 0.400
    Размер потока : 12,4 Гбайт (84%)
    Язык : English
    Default : Да
    Forced : Нет
    Цветовой диапазон : Limited
    Основные цвета : BT.709
    Характеристики трансфера : BT.709
    Коэффициенты матрицы : BT.709
    Аудио #1
    Идентификатор : 2
    Формат : DTS
    Формат/Информация : Digital Theater Systems
    Профиль формата : MA / Core
    Режим : 16
    Параметр Endianness формата : Big
    Идентификатор кодека : A_DTS
    Продолжительность : 1 ч. 28 м.
    Вид битрейта : Переменный / Постоянный
    Битрейт : 1765 Кбит/сек / 768 Кбит/сек
    Каналы : 6 каналов
    Расположение каналов : Front: L C R, Side: L R, LFE
    Частота : 48,0 КГц
    Частота кадров : 93,750 кадра/сек (512 spf)
    Битовая глубина : 16 бит
    Метод сжатия : Без потерь / Lossy
    Размер потока : 1,10 Гбайт (7%)
    Заголовок : DUB
    Язык : Russian
    Default : Да
    Forced : Нет
    Аудио #2
    Идентификатор : 3
    Формат : DTS
    Формат/Информация : Digital Theater Systems
    Профиль формата : HRA / Core
    Режим : 16
    Параметр Endianness формата : Big
    Идентификатор кодека : A_DTS
    Продолжительность : 1 ч. 28 м.
    Вид битрейта : Постоянный
    Битрейт : 2046 Кбит/сек / 1509 Кбит/сек
    Каналы : 6 каналов
    Расположение каналов : Front: L C R, Side: L R, LFE
    Частота : 96,0 КГц / 48,0 КГц
    Частота кадров : 93,750 кадра/сек (512 spf)
    Битовая глубина : 24 бит
    Метод сжатия : С потерями
    Размер потока : 1,27 Гбайт (9%)
    Заголовок : Original
    Язык : English
    Default : Нет
    Forced : Нет
    Текст
    Идентификатор : 4
    Формат : UTF-8
    Идентификатор кодека : S_TEXT/UTF8
    Идентификатор кодека/Информация : UTF-8 Plain Text
    Продолжительность : 1 ч. 21 м.
    Битрейт : 79 бит/сек
    Count of elements : 1527
    Размер потока : 47,6 Кбайт (0%)
    Заголовок : Original
    Язык : English
    Default : Нет
    Forced : Нет
    Меню
    00:00:00.000 : en:[ 1 ]
    00:04:34.232 : en:[ 2 ]
    00:10:33.215 : en:[ 3 ]
    00:17:04.189 : en:[ 4 ]
    00:20:34.858 : en:[ 5 ]
    00:26:37.345 : en:[ 6 ]
    00:32:59.352 : en:[ 7 ]
    00:35:55.611 : en:[ 8 ]
    00:43:16.010 : en:[ 9 ]
    00:47:01.276 : en:[ 10 ]
    00:53:17.360 : en:[ 11 ]
    00:58:48.107 : en:[ 12 ]
    01:07:40.890 : en:[ 13 ]
    01:12:06.739 : en:[ 14 ]
    01:15:38.700 : en:[ 15 ]
    01:20:41.503 : en:[ 16 ]

    Скриншоты

    Скачать .torrent

    Скачать торрент-файл бесплатно и на максимальной скорости!

    Как скачивать? · Что такое торрент? · Рейтинг и ограничения

    !ВНИМАНИЕ!
    Сайт не распространяет и не хранит электронные версии произведений, а занимается лишь лишь предоставлением доступа к создаваемому пользователями каталогу ссылок на торрент-файлы, которые содержат только списки хеш-сумм, убедительная просьба с жалобами обращаться напрямую к пользователю. Файлы для обмена на трекере предоставлены пользователями сайта, и администрация не несёт ответственности за их содержание. Просьба не заливать файлы, защищенные авторскими правами, а также файлы нелегального содержания!


    _________________
    [Профиль] [ЛС]
    Показать сообщения:    
    Ответить на тему

    Текущее время: Сегодня, в 03:13

    Часовой пояс: GMT + 2



    Вы не можете начинать темы
    Вы не можете отвечать на сообщения
    Вы не можете редактировать свои сообщения
    Вы не можете удалять свои сообщения
    Вы не можете голосовать в опросах
    Вы не можете прикреплять файлы к сообщениям
    Вы не можете скачивать файлы