BitTorrentTracker PerecTracker.org
BitTorrentTracker PerecTracker.org
    
Регистрация  ·  Вход
 
 · 
Забыли пароль?

  • Семейка Тененбаум / The Royal Tenenbaums (Уэс Андерсон) [2001, США, драма, комедия, BDRip, HD (720p, 1080p)] DVO НТВ+ + Original + sub (rus, eng)

    Ответить на тему
     
    Автор Сообщение

    Flirldrerve

    Создавать темы 05-Мар-2016 20:40

           

    [Цитировать]

    Семейка Тененбаум / The Royal Tenenbaums
    Год выпуска: 2001
    Страна: США
    Жанр: драма, комедия
    Продолжительность: 1:49:55
    Рейтинг MPAA: R
    Рейтинг КиноПоиск: 7.465
    Рейтинг IMDb: 7.6
    Перевод: Профессиональный (двухголосый закадровый) НТВ+
    Оригинальная аудиодорожка: есть
    Cубтитры: русские и английские
    Режиссёр: Уэс Андерсон / Wes Anderson
    Сценарий: Уэс Андерсон, Оуэн Уилсон
    Продюсер: Уэс Андерсон, Бэрри Мендел, Скотт Рудин
    В ролях: Джин Хэкмен, Анжелика Хьюстон, Бен Стиллер, Гвинет Пэлтроу, Люк Уилсон, Оуэн Уилсон, Билл Мюррей, Дэнни Гловер, Сеймур Кэссел, Кумар Паллана
    Описание:
    Фильм рассказывает о необычной семье Тененбаумов, все члены которой обладают уникальными способностями. Например, Чес уже в десять лет добился больших успехов в финансовой сфере, Ричи является одаренным теннисистом, Марго стала в десять лет известным писателем-драматургом.
    Дети выросли и выпорхнули из родительского гнездышка, но пробил час, когда семья вновь решила вернуться к родным пенатам, потому что отец семейства Роял Тененбаум, как выяснилось, страдает неизлечимой болезнью и ему осталось жить чуть больше полугода. За это время Роял постарается наверстать упущенное и уделить своим детям внимание, которым они были обделены с его стороны в детстве.
    Качество исходника: BDRemux http://perectracker.org/viewtopic.php?t=4170641
    Качество: BDRip
    Тип: HD (720p, 1080p)
    Контейнер: M4V
    Видео 1080p: AVC, 1920x800, 2.40:1, 8000 Kbps, 23.976 fps
    Видео 720p: AVC, 1280x528, 2.40:1, 3000 Kbps, 23.976 fps
    Аудио №1: Русский (двухголосый закадровый), stereo, 48 KHz, 160 Kbps
    Аудио №2: Английский (оригинал), stereo, 48 KHz, 160 Kbps
    Аудио №3: Русский (двухголосый закадровый), AC-3 (6 ch), 48 KHz, 448 Kbps
    Аудио №4: Английский (оригинал), AC-3 (6 ch), 48 KHz, 448 Kbps

    iTunes Meta Tags

    Sort Name: Royal TenenbaumsXID: Apple:vendor_id:2001-809contentID: 205702124Copyright: © 2001 TouchstoneScreenwriters: Уэс Андерсон, Оуэн УилсонProducers: Уэс Андерсон, Бэрри Мендел, Скотт РудинDirector: Уэс АндерсонCast: Джин Хэкмен, Анжелика Хьюстон, Бен Стиллер, Гвинет Пэлтроу, Люк Уилсон, Оуэн Уилсон, Билл Мюррей, Дэнни Гловер, Сеймур Кэссел, Кумар ПалланаStudio: Touchstone PicturesRating: 5Long Description: Фильм рассказывает о необычной семье Тененбаумов, все члены которой обладают уникальными способностями. Например, Чес уже в десять лет добился больших успехов в финансовой сфере, Ричи является одаренным теннисистом, Марго стала в десять лет известным писателем-драматургом.Дети выросли и выпорхнули из родительского гнездышка, но пробил час, когда семья вновь решила собраться в родных пенатах, потому что отец семейства Роял Тененбаум, как выяснилось, страдает неизлечимой болезнью и ему осталось жить чуть больше полугода. За это время Роял постарается наверстать упущенное и уделить своим детям внимание, которым они были обделены с его стороны в детстве.Description: Фильм рассказывает о необычной семье Тененбаумов, все члены которой обладают уникальными способностями. Например, Чес уже в десять лет добился больших успехов в финансовой сфере, Ричи является одаренным теннисистом, Марго стала в десять лет известным писателем-драматургом. Дети выросли и выпорхнули из родительского гнездышка, но пробил час, когда семья вновь решила собраться в родных пенатах...Release Date: 2001-10-05T07:00:00ZGenre: ComedyArtist: Wes AndersonName: The Royal Tenenbaums
    HD 1080p:

    MediaInfo

    * * * MediaInspector for Mac - Version 2.6, build 953* * * ©2012 by Diego Massanti* * * MediaInfo Lib by Jerome Martinez* * * Raw File Report for The Royal Tenenbaums (1080p HD).m4v
    GeneralComplete name : /The Royal Tenenbaums/The Royal Tenenbaums (1080p HD).m4vFormat : MPEG-4Codec ID : M4VFile size : 7.06 GiBDuration : 1h 49mnOverall bit rate mode : VariableOverall bit rate : 9 197 Kbps
    Video #1ID : 1Format : AVCFormat/Info : Advanced Video CodecFormat profile : High@L4.0Format settings, CABAC : YesFormat settings, ReFrames : 4 framesCodec ID : avc1Codec ID/Info : Advanced Video CodingDuration : 1h 49mnBit rate : 8 000 KbpsWidth : 1 920 pixelsHeight : 800 pixelsDisplay aspect ratio : 2.40:1Frame rate mode : VariableFrame rate : 23.976 fpsMinimum frame rate : 23.974 fpsMaximum frame rate : 23.981 fpsColor space : YUVChroma subsampling : 4:2:0Bit depth : 8 bitsScan type : ProgressiveBits/(Pixel*Frame) : 0.217Stream size : 6.11 GiB (87%)Writing library : x264 core 142 r2479 dd79a61Encoding settings : cabac=1 / ref=4 / deblock=1:0:0 / analyse=0x3:0x113 / me=umh / subme=9 / psy=1 / psy_rd=1.00:0.00 / mixed_ref=1 / me_range=32 / chroma_me=1 / trellis=0 / 8x8dct=1 / cqm=0 / deadzone=21,11 / fast_pskip=0 / chroma_qp_offset=-2 / threads=12 / lookahead_threads=1 / sliced_threads=0 / nr=0 / decimate=1 / interlaced=0 / bluray_compat=0 / constrained_intra=0 / bframes=6 / b_pyramid=0 / b_adapt=2 / b_bias=0 / direct=3 / weightb=0 / open_gop=0 / weightp=0 / keyint=240 / keyint_min=24 / scenecut=40 / intra_refresh=0 / rc_lookahead=40 / rc=2pass / mbtree=1 / bitrate=8000 / ratetol=1.0 / qcomp=0.60 / qpmin=0 / qpmax=69 / qpstep=4 / cplxblur=20.0 / qblur=0.5 / vbv_maxrate=9500 / vbv_bufsize=9500 / nal_hrd=none / filler=0 / ip_ratio=1.40 / aq=1:1.00Language : EnglishEncoded date : UTC 2016-03-03 18:40:12Tagged date : UTC 2016-03-03 18:48:28Color primaries : BT.709Transfer characteristics : BT.709Matrix coefficients : BT.709
    Video #2ID : 8Format : JPEGCodec ID : jpegDuration : 1h 49mnBit rate mode : VariableBit rate : 613 bpsWidth : 640 pixelsHeight : 266 pixelsDisplay aspect ratio : 2.40:1Frame rate mode : VariableFrame rate : 0.002 fpsMinimum frame rate : 0.001 fpsMaximum frame rate : 0.015 fpsColor space : YUVChroma subsampling : 4:2:0Bit depth : 8 bitsCompression mode : LossyBits/(Pixel*Frame) : 1.800Stream size : 449 KiB (0%)Language : EnglishEncoded date : UTC 2016-03-03 18:40:12Tagged date : UTC 2016-03-03 18:47:27
    Audio #1ID : 2Format : AACFormat/Info : Advanced Audio CodecFormat profile : LCCodec ID : 40Duration : 1h 49mnBit rate mode : VariableBit rate : 159 KbpsMaximum bit rate : 255 KbpsChannel(s) : 2 channelsChannel positions : Front: L RSampling rate : 48.0 KHzCompression mode : LossyStream size : 125 MiB (2%)Language : RussianEncoded date : UTC 2016-03-03 18:40:12Tagged date : UTC 2016-03-03 18:48:28
    Audio #2ID : 3Format : AACFormat/Info : Advanced Audio CodecFormat profile : LCCodec ID : 40Duration : 1h 49mnBit rate mode : VariableBit rate : 161 KbpsMaximum bit rate : 266 KbpsChannel(s) : 2 channelsChannel positions : Front: L RSampling rate : 48.0 KHzCompression mode : LossyStream size : 126 MiB (2%)Language : EnglishEncoded date : UTC 2016-03-03 18:40:12Tagged date : UTC 2016-03-03 18:48:28
    Audio #3ID : 4Format : AC-3Format/Info : Audio Coding 3Mode extension : CM (complete main)Format settings, Endianness : BigCodec ID : ac-3Duration : 1h 49mnBit rate mode : ConstantBit rate : 448 KbpsChannel(s) : 6 channelsChannel positions : Front: L C R, Side: L R, LFESampling rate : 48.0 KHzBit depth : 16 bitsCompression mode : LossyStream size : 352 MiB (5%)Language : RussianEncoded date : UTC 2016-03-03 18:40:12Tagged date : UTC 2016-03-03 18:48:28
    Audio #4ID : 5Format : AC-3Format/Info : Audio Coding 3Mode extension : CM (complete main)Format settings, Endianness : BigCodec ID : ac-3Duration : 1h 49mnBit rate mode : ConstantBit rate : 448 KbpsChannel(s) : 6 channelsChannel positions : Front: L C R, Side: L R, LFESampling rate : 48.0 KHzBit depth : 16 bitsCompression mode : LossyStream size : 352 MiB (5%)Language : EnglishEncoded date : UTC 2016-03-03 18:40:12Tagged date : UTC 2016-03-03 18:48:28
    Text #1ID : 6Format : Timed TextMuxing mode : sbtlCodec ID : tx3gDuration : 1h 42mnBit rate mode : VariableBit rate : 107 bpsStream size : 80.9 KiB (0%)Language : RussianEncoded date : UTC 2016-03-03 18:40:12Tagged date : UTC 2016-03-03 18:48:17
    Text #2ID : 7Format : Timed TextMuxing mode : sbtlCodec ID : tx3gDuration : 1h 45mnBit rate mode : VariableBit rate : 76 bpsStream size : 58.7 KiB (0%)Language : EnglishEncoded date : UTC 2016-03-03 18:40:12Tagged date : UTC 2016-03-03 18:48:22
    MenuID : 9Codec ID : textDuration : 1h 49mnLanguage : EnglishEncoded date : UTC 2016-03-03 18:48:28Tagged date : UTC 2016-03-03 18:48:2800:00:00.000 : Chapter 100:06:54.080 : Chapter 200:08:02.273 : Chapter 300:16:41.375 : Chapter 400:27:05.457 : Chapter 500:35:13.945 : Chapter 600:42:11.237 : Chapter 700:54:47.784 : Chapter 801:05:35.223 : Chapter 901:21:34.431 : Chapter 1001:30:35.722 : Chapter 1101:41:28.582 : Chapter 12Bit rate mode : VBR

    x264 лог

    x264 [info]: frame I:1127 Avg QP:18.50 size:283858x264 [info]: frame P:48125 Avg QP:21.00 size: 71733x264 [info]: frame B:108875 Avg QP:23.58 size: 25649x264 [info]: consecutive B-frames: 2.7% 10.6% 43.9% 14.1% 9.0% 15.5% 4.2%x264 [info]: mb I I16..4: 22.7% 58.7% 18.6%x264 [info]: mb P I16..4: 3.6% 7.3% 0.8% P16..4: 42.7% 24.8% 14.2% 0.0% 0.0% skip: 6.6%x264 [info]: mb B I16..4: 3.1% 1.5% 0.1% B16..8: 50.0% 6.0% 1.5% direct: 5.2% skip:32.6% L0:42.6% L1:50.8% BI: 6.6%x264 [info]: 8x8 transform intra:48.7% inter:45.5%x264 [info]: direct mvs spatial:92.1% temporal:7.9%x264 [info]: coded y,uvDC,uvAC intra: 96.4% 89.1% 71.3% inter: 26.1% 27.0% 5.7%x264 [info]: i16 v,h,dc,p: 10% 7% 57% 26%x264 [info]: i8 v,h,dc,ddl,ddr,vr,hd,vl,hu: 9% 8% 9% 9% 13% 12% 14% 11% 14%x264 [info]: i4 v,h,dc,ddl,ddr,vr,hd,vl,hu: 9% 10% 7% 8% 13% 12% 14% 11% 15%x264 [info]: i8c dc,h,v,p: 56% 17% 16% 11%x264 [info]: ref P L0: 67.5% 17.4% 10.1% 5.0%x264 [info]: ref B L0: 79.1% 13.4% 7.6%x264 [info]: kb/s:7962.88

    Скриншоты

    HD 720p:

    MediaInfo

    * * * MediaInspector for Mac - Version 2.6, build 953* * * ©2012 by Diego Massanti* * * MediaInfo Lib by Jerome Martinez* * * Raw File Report for The Royal Tenenbaums (HD).m4v
    GeneralComplete name : /The Royal Tenenbaums/The Royal Tenenbaums (HD).m4vFormat : MPEG-4Format profile : Base Media / Version 2Codec ID : mp42File size : 3.25 GiBDuration : 1h 49mnOverall bit rate mode : VariableOverall bit rate : 4 236 Kbps
    Video #1ID : 1Format : AVCFormat/Info : Advanced Video CodecFormat profile : High@L3.1Format settings, CABAC : NoFormat settings, ReFrames : 3 framesCodec ID : avc1Codec ID/Info : Advanced Video CodingDuration : 1h 49mnBit rate : 3 000 KbpsWidth : 1 280 pixelsHeight : 528 pixelsDisplay aspect ratio : 2.40:1Frame rate mode : VariableFrame rate : 23.976 fpsMinimum frame rate : 23.974 fpsMaximum frame rate : 23.981 fpsColor space : YUVChroma subsampling : 4:2:0Bit depth : 8 bitsScan type : ProgressiveBits/(Pixel*Frame) : 0.185Stream size : 2.30 GiB (71%)Writing library : x264 core 142 r2479 dd79a61Encoding settings : cabac=0 / ref=3 / deblock=1:0:0 / analyse=0x3:0x113 / me=umh / subme=9 / psy=1 / psy_rd=1.00:0.00 / mixed_ref=1 / me_range=32 / chroma_me=1 / trellis=0 / 8x8dct=1 / cqm=0 / deadzone=21,11 / fast_pskip=0 / chroma_qp_offset=-2 / threads=12 / lookahead_threads=1 / sliced_threads=0 / nr=0 / decimate=1 / interlaced=0 / bluray_compat=0 / constrained_intra=0 / bframes=3 / b_pyramid=0 / b_adapt=2 / b_bias=0 / direct=3 / weightb=0 / open_gop=0 / weightp=0 / keyint=240 / keyint_min=24 / scenecut=40 / intra_refresh=0 / rc_lookahead=40 / rc=2pass / mbtree=1 / bitrate=3000 / ratetol=1.0 / qcomp=0.60 / qpmin=0 / qpmax=69 / qpstep=4 / cplxblur=20.0 / qblur=0.5 / vbv_maxrate=9500 / vbv_bufsize=9500 / nal_hrd=none / filler=0 / ip_ratio=1.40 / aq=1:1.00Language : EnglishEncoded date : UTC 2016-02-28 21:31:31Tagged date : UTC 2016-02-28 21:31:31Color primaries : BT.709Transfer characteristics : BT.709Matrix coefficients : BT.709
    Video #2ID : 9Format : JPEGCodec ID : jpegDuration : 1h 49mnBit rate mode : VariableBit rate : 618 bpsWidth : 640 pixelsHeight : 264 pixelsDisplay aspect ratio : 2.40:1Frame rate mode : VariableFrame rate : 0.002 fpsMinimum frame rate : 0.001 fpsMaximum frame rate : 0.015 fpsColor space : YUVChroma subsampling : 4:2:0Bit depth : 8 bitsCompression mode : LossyBits/(Pixel*Frame) : 1.829Stream size : 452 KiB (0%)Language : EnglishEncoded date : UTC 2016-03-01 17:48:43Tagged date : UTC 2016-03-01 17:48:43
    Audio #1ID : 2Format : AACFormat/Info : Advanced Audio CodecFormat profile : LCCodec ID : 40Duration : 1h 49mnBit rate mode : VariableBit rate : 159 KbpsMaximum bit rate : 255 KbpsChannel(s) : 2 channelsChannel positions : Front: L RSampling rate : 48.0 KHzCompression mode : LossyStream size : 125 MiB (4%)Title : StereoLanguage : RussianEncoded date : UTC 2016-02-28 21:31:31Tagged date : UTC 2016-02-28 21:31:31
    Audio #2ID : 3Format : AACFormat/Info : Advanced Audio CodecFormat profile : LCCodec ID : 40Duration : 1h 49mnBit rate mode : VariableBit rate : 161 KbpsMaximum bit rate : 266 KbpsChannel(s) : 2 channelsChannel positions : Front: L RSampling rate : 48.0 KHzCompression mode : LossyStream size : 126 MiB (4%)Title : StereoLanguage : EnglishEncoded date : UTC 2016-02-28 21:31:31Tagged date : UTC 2016-02-28 21:31:31
    Audio #3ID : 4Format : AC-3Format/Info : Audio Coding 3Mode extension : CM (complete main)Format settings, Endianness : BigCodec ID : ac-3Duration : 1h 49mnBit rate mode : ConstantBit rate : 448 KbpsChannel(s) : 6 channelsChannel positions : Front: L C R, Side: L R, LFESampling rate : 48.0 KHzBit depth : 16 bitsCompression mode : LossyStream size : 352 MiB (11%)Title : SurroundLanguage : RussianEncoded date : UTC 2016-02-28 21:31:31Tagged date : UTC 2016-02-28 21:31:31
    Audio #4ID : 5Format : AC-3Format/Info : Audio Coding 3Mode extension : CM (complete main)Format settings, Endianness : BigCodec ID : ac-3Duration : 1h 49mnBit rate mode : ConstantBit rate : 448 KbpsChannel(s) : 6 channelsChannel positions : Front: L C R, Side: L R, LFESampling rate : 48.0 KHzBit depth : 16 bitsCompression mode : LossyStream size : 352 MiB (11%)Title : SurroundLanguage : EnglishEncoded date : UTC 2016-02-28 21:31:31Tagged date : UTC 2016-02-28 21:31:31
    Text #1ID : 6Format : Timed TextMuxing mode : sbtlCodec ID : tx3gDuration : 1h 42mnBit rate mode : VariableBit rate : 107 bpsStream size : 80.9 KiB (0%)Language : RussianEncoded date : UTC 2016-02-29 17:47:12Tagged date : UTC 2016-02-29 17:47:25
    Text #2ID : 7Format : Timed TextMuxing mode : sbtlCodec ID : tx3gDuration : 1h 45mnBit rate mode : VariableBit rate : 76 bpsStream size : 58.7 KiB (0%)Language : EnglishEncoded date : UTC 2016-02-29 17:47:12Tagged date : UTC 2016-02-29 17:47:26
    MenuID : 8Codec ID : textDuration : 1h 49mnLanguage : EnglishEncoded date : UTC 2016-03-01 17:48:40Tagged date : UTC 2016-03-01 17:48:4000:00:00.000 : Chapter 100:06:54.080 : Chapter 200:08:02.273 : Chapter 300:16:41.375 : Chapter 400:27:05.457 : Chapter 500:35:13.945 : Chapter 600:42:11.237 : Chapter 700:54:47.784 : Chapter 801:05:35.223 : Chapter 901:21:34.431 : Chapter 1001:30:35.722 : Chapter 1101:41:28.582 : Chapter 12Bit rate mode : VBR

    x264 лог

    x264 [info]: frame I:1193 Avg QP:17.12 size:144724x264 [info]: frame P:54610 Avg QP:20.13 size: 30727x264 [info]: frame B:102324 Avg QP:23.30 size: 5616x264 [info]: consecutive B-frames: 2.9% 16.9% 46.3% 33.8%x264 [info]: mb I I16..4: 20.7% 0.0% 79.3%x264 [info]: mb P I16..4: 11.9% 0.0% 0.0% P16..4: 74.0% 0.0% 0.0% 0.0% 0.0% skip:14.1%x264 [info]: mb B I16..4: 2.7% 0.0% 0.0% B16..8: 21.0% 0.0% 0.0% direct:12.4% skip:63.9% L0:28.5% L1:43.3% BI:28.1%x264 [info]: final ratefactor: 19.24x264 [info]: direct mvs spatial:98.4% temporal:1.6%x264 [info]: coded y,uvDC,uvAC intra: 76.0% 68.2% 43.7% inter: 22.4% 16.6% 3.0%x264 [info]: i16 v,h,dc,p: 30% 19% 36% 15%x264 [info]: i4 v,h,dc,ddl,ddr,vr,hd,vl,hu: 21% 17% 12% 7% 8% 8% 8% 8% 9%x264 [info]: i8c dc,h,v,p: 53% 19% 22% 6%x264 [info]: kb/s:2941.86

    Скриншоты

    А SD версия здесь
    => http://perectracker.org/viewtopic.php?t=5183272 <=
    Скачать .torrent

    Скачать торрент-файл бесплатно и на максимальной скорости!

    Как скачивать? · Что такое торрент? · Рейтинг и ограничения

    !ВНИМАНИЕ!
    Сайт не распространяет и не хранит электронные версии произведений, а занимается лишь лишь предоставлением доступа к создаваемому пользователями каталогу ссылок на торрент-файлы, которые содержат только списки хеш-сумм, убедительная просьба с жалобами обращаться напрямую к пользователю. Файлы для обмена на трекере предоставлены пользователями сайта, и администрация не несёт ответственности за их содержание. Просьба не заливать файлы, защищенные авторскими правами, а также файлы нелегального содержания!


    _________________
    [Профиль] [ЛС]
    Показать сообщения:    
    Ответить на тему

    Текущее время: Сегодня, в 03:05

    Часовой пояс: GMT + 2



    Вы не можете начинать темы
    Вы не можете отвечать на сообщения
    Вы не можете редактировать свои сообщения
    Вы не можете удалять свои сообщения
    Вы не можете голосовать в опросах
    Вы не можете прикреплять файлы к сообщениям
    Вы не можете скачивать файлы