Register  ·  Log in
Forgot password?

  • Огненная река / Fiery River [Путь лидера] (Рустем Абдрашев / Rustem Abdrashev) [2013, Казахстан, биографический, DVDRip]

    Reply to topic
    Author Message


    Post 05-Mar-2016 21:40



    Огненная река / Fiery River
    Страна: Казахстан
    Жанр: биографический
    Год выпуска: 2013
    Продолжительность: 01:24:02
    Перевод: Не требуется
    Cубтитры: нет
    Режиссер: Рустем Абдрашев / Rustem Abdrashev
    В ролях: Нуржуман Ихтымбаев, Наталия Аринбасарова, Нурлан Алимжанов, Мадина Есманова,
    Виктор Сухоруков, Валентин Гафт, Сергей Шакуров и др.
    Описание: Вторая серия киноэпопеи "Путь лидера".
    Фильм рассказывает о студенческих годах Нурсултана Назарбаева, о важнейших этапах становления его личности на фоне ключевых событий в истории страны, когда в степях строилось будущее казахстанской промышленности.
    Доп. информация:
    Первая серия тут:
    Третья серия тут:
    Четвёртая серия:
    Качество видео: DVDRip
    Формат видео: AVI
    Видео: XviD, 720x304, 25fps, 2 103 Kbps
    Аудио: MP3, 44.1 KHz, 2.0 ch, 224 Kbps (CBR)


    Complete name : C:\Documents and Settings\Geezer\Мои документы\Downloads\Путь лидера\Огненная река (2013).avi
    Format : AVI
    Format/Info : Audio Video Interleave
    File size : 1.37 GiB
    Duration : 1h 24mn
    Overall bit rate : 2 337 Kbps
    Writing application : Lavf52.93.0
    Writing library : VirtualDub build 32507/release
    ID : 0
    Format : MPEG-4 Visual
    Format profile : Advanced Simple@L5
    Format settings, BVOP : 1
    Format settings, QPel : No
    Format settings, GMC : No warppoints
    Format settings, Matrix : Default (H.263)
    Codec ID : XVID
    Codec ID/Hint : XviD
    Duration : 1h 24mn
    Bit rate : 2 103 Kbps
    Width : 720 pixels
    Height : 304 pixels
    Display aspect ratio : 2.35:1
    Frame rate : 25.000 fps
    Color space : YUV
    Chroma subsampling : 4:2:0
    Bit depth : 8 bits
    Scan type : Progressive
    Compression mode : Lossy
    Bits/(Pixel*Frame) : 0.384
    Stream size : 1.23 GiB (90%)
    Writing library : XviD 64
    ID : 1
    Format : MPEG Audio
    Format version : Version 1
    Format profile : Layer 3
    Mode : Joint stereo
    Mode extension : MS Stereo
    Codec ID : 55
    Codec ID/Hint : MP3
    Duration : 1h 24mn
    Bit rate mode : Constant
    Bit rate : 224 Kbps
    Channel(s) : 2 channels
    Sampling rate : 44.1 KHz
    Compression mode : Lossy
    Stream size : 135 MiB (10%)
    Alignment : Split accross interleaves
    Interleave, duration : 40 ms (1.00 video frame)
    Interleave, preload duration : 500 ms
    Writing library : LAME3.99rВ

    Скриншот c названием фильма


    Download .torrent

    Download free and at maximum speed!

    How to Download? · What is a torrent? · Ratings and Limitations

    The site does not extend and does not store electronic(digital) versions of products, and only gives access to a reference catalogue created by users on torrent-files which contain only lists of the hash-sums, the earnest entreaty, with complaints(abuse) to access directly to the user. Files for an exchange on tracker are given by users of a site, and the administration does not bear the responsibility for their maintenance. The request to not fill in the files protected by copyrights, and also files of the illegal maintenance!

    [Profile] [PM]
    Display posts from previous:    
    Reply to topic

    The time now is: Today 23:00

    All times are GMT + 3 Hours

    You cannot post new topics in this forum
    You cannot reply to topics in this forum
    You cannot edit your posts in this forum
    You cannot delete your posts in this forum
    You cannot vote in polls in this forum
    You cannot attach files in this forum
    You cannot download files in this forum