BitTorrentTracker PerecTracker.org
BitTorrentTracker PerecTracker.org
    
Регистрация  ·  Вход
 
 · 
Забыли пароль?

  • Лунная афера / Moonwalkers (Антуан Бардо-Жаке / Antoine Bardou-Jacquet) [2015, Франция, Комедия, BDRip-AVC] Dub

    Ответить на тему
     
    Автор Сообщение

    rechyn

    Создавать темы 05-Мар-2016 20:40

           

    [Цитировать]

    Лунная афера / Moonwalkers
    «Based on a true conspiracy theory»
    -Страна: Франция
    Жанр: комедия
    Год выпуска: 2015
    Продолжительность: 01:36:22
    Перевод : Профессиональный (полное дублирование) (iTunes)
    Навигация по главам: есть
    Режиссёр: Антуан Бардо-Жаке / Antoine Bardou-Jacquet
    В ролях: Руперт Гринт, Рон Перлман, Роберт Шиэн, Стивен Кэмпбелл Мур, Том Ауденарт, Кевин Бишоп, Эрик Лёмпарт, Эрика Сэйнт, Джей Бенедикт, Джон Фландерс
    Описание: Тайный агент ЦРУ отправляется в Лондон, чтобы разыскать там Стэнли Кубрика и заказать ему фильм про высадку астронавтов на лунную поверхность на случай провала реальной миссии. Но вместо Кубрика агент нарывается на афериста Джонни, который устраивает съемки сверхсекретного видео на стремной студии порнофильмов, где невесомость достигается благодаря крепкому косяку…

    Качество видео: BDRip-AVC (исходник - BDRemux|Lunnaya.afera.2015.BDRemux.1080p.nnm-club)
    Формат видео: MKV
    Видео: x264, 1088x458 (2.40:1), 23,976 fps, ~1645 kbps, 0.138 bit/pixel
    Аудио: 48 kHz, AC3 Dolby Digital, 3/2 (L,C,R,l,r) + LFE ch, ~384 kbps
    MediaInfo | x264 log
    Format : Matroska
    Format version : Version 4 / Version 2
    File size : 1.36 GiB
    Duration : 1h 36mn
    Overall bit rate : 2 028 Kbps
    Movie name : Лунная афера / Moonwalkers (2015) :: AFM ::
    Encoded date : UTC 2016-03-05 10:42:25
    Writing application : mkvmerge v8.3.0 ('Over the Horizon') 32bit
    Writing library : libebml v1.3.1 + libmatroska v1.4.2
    Video
    ID : 1
    Format : AVC
    Format/Info : Advanced Video Codec
    Format profile : High@L4.1
    Format settings, CABAC : Yes
    Format settings, ReFrames : 9 frames
    Codec ID : V_MPEG4/ISO/AVC
    Duration : 1h 36mn
    Bit rate : 1 645 Kbps
    Width : 1 088 pixels
    Height : 458 pixels
    Display aspect ratio : 2.40:1
    Frame rate mode : Constant
    Frame rate : 23.976 fps
    Color space : YUV
    Chroma subsampling : 4:2:0
    Bit depth : 8 bits
    Scan type : Progressive
    Bits/(Pixel*Frame) : 0.138
    Stream size : 1.08 GiB (79%)
    Title : BDRip by AFM [RuTracker.org]
    Writing library : x264 core 148 r2665+53 6629127 t_mod_Custom [8-bit@all X86_64]
    Encoding settings : cabac=1 / ref=9 / deblock=1:-3:-2 / analyse=0x3:0x113 / me=umh / subme=11 / psy=1 / fade_compensate=0.00 / psy_rd=1.00:0.00 / mixed_ref=1 / me_range=32 / chroma_me=1 / trellis=2 / 8x8dct=1 / cqm=0 / deadzone=21,11 / fast_pskip=0 / chroma_qp_offset=-2 / threads=6 / lookahead_threads=1 / sliced_threads=0 / nr=0 / decimate=0 / interlaced=0 / bluray_compat=0 / constrained_intra=0 / fgo=0 / bframes=12 / b_pyramid=2 / b_adapt=2 / b_bias=0 / direct=3 / weightb=1 / open_gop=0 / weightp=2 / keyint=250 / keyint_min=23 / scenecut=40 / intra_refresh=0 / rc_lookahead=40 / rc=2pass / mbtree=0 / bitrate=1645 / ratetol=1.0 / qcomp=0.65 / qpmin=0:0:0 / qpmax=69:69:69 / qpstep=4 / cplxblur=20.0 / qblur=0.5 / vbv_maxrate=50000 / vbv_bufsize=62500 / nal_hrd=none / filler=0 / ip_ratio=1.35 / pb_ratio=1.30 / aq=1:0.90 / aq-sensitivity=10.00 / aq-factor=1.00:1.00:1.00 / aq2=0 / aq3=0
    Language : Russian
    Default : Yes
    Forced : No
    Audio
    ID : 2
    Format : AC-3
    Format/Info : Audio Coding 3
    Mode extension : CM (complete main)
    Format settings, Endianness : Big
    Codec ID : A_AC3
    Duration : 1h 36mn
    Bit rate mode : Constant
    Bit rate : 384 Kbps
    Channel(s) : 6 channels
    Channel positions : Front: L C R, Side: L R, LFE
    Sampling rate : 48.0 KHz
    Compression mode : Lossy
    Stream size : 265 MiB (19%)
    Title : Dub, AC3 5.1 ~384 kbps
    Language : Russian
    Default : Yes
    Forced : No
    Menu
    00:00:00.000 : en:Chapter 00
    00:07:00.670 : en:Chapter 01
    00:16:51.927 : en:Chapter 02
    00:25:18.517 : en:Chapter 03
    00:33:09.988 : en:Chapter 04
    00:41:52.551 : en:Chapter 05
    00:49:57.077 : en:Chapter 06
    00:59:36.197 : en:Chapter 07
    01:08:03.287 : en:Chapter 08
    01:15:28.857 : en:Chapter 09
    01:23:17.617 : en:Chapter 10
    01:32:40.721 : en:Chapter 11

    x264

    x264 [info]: frame I:1486 Avg QP:15.81 size: 62913
    x264 [info]: frame P:29589 Avg QP:19.15 size: 17836
    x264 [info]: frame B:107563 Avg QP:21.29 size: 5258
    x264 [info]: consecutive B-frames: 2.3% 2.0% 8.7% 18.5% 18.3% 40.6% 5.3% 1.4% 1.0% 0.5% 0.6% 0.5% 0.4%
    x264 [info]: mb I I16..4: 5.5% 77.6% 16.9%
    x264 [info]: mb P I16..4: 0.7% 6.5% 1.0% P16..4: 34.5% 38.4% 12.1% 0.0% 0.0% skip: 6.8%
    x264 [info]: mb B I16..4: 0.0% 0.5% 0.1% B16..8: 35.8% 18.0% 2.7% direct: 2.9% skip:39.9% L0:43.6% L1:47.1% BI: 9.4%
    x264 [info]: 8x8 transform intra:78.8% inter:62.7%
    x264 [info]: direct mvs spatial:97.3% temporal:2.7%
    x264 [info]: coded y,uvDC,uvAC intra: 88.2% 78.3% 52.6% inter: 17.6% 11.7% 4.7%
    x264 [info]: i16 v,h,dc,p: 30% 24% 2% 44%
    x264 [info]: i8 v,h,dc,ddl,ddr,vr,hd,vl,hu: 9% 7% 6% 10% 15% 15% 13% 13% 12%
    x264 [info]: i4 v,h,dc,ddl,ddr,vr,hd,vl,hu: 12% 9% 4% 9% 15% 15% 13% 11% 12%
    x264 [info]: i8c dc,h,v,p: 38% 25% 21% 17%
    x264 [info]: Weighted P-Frames: Y:96.9% UV:1.6%
    x264 [info]: ref P L0: 48.4% 10.1% 18.0% 6.7% 5.5% 3.7% 3.5% 1.9% 2.0% 0.3% 0.0%
    x264 [info]: ref B L0: 71.6% 12.8% 6.4% 3.6% 2.3% 1.8% 1.1% 0.4%
    x264 [info]: ref B L1: 91.8% 8.2%
    x264 [info]: kb/s:1641.93
    Скриншоты

    с названием

    Скачать .torrent

    Скачать торрент-файл бесплатно и на максимальной скорости!

    Как скачивать? · Что такое торрент? · Рейтинг и ограничения

    !ВНИМАНИЕ!
    Сайт не распространяет и не хранит электронные версии произведений, а занимается лишь лишь предоставлением доступа к создаваемому пользователями каталогу ссылок на торрент-файлы, которые содержат только списки хеш-сумм, убедительная просьба с жалобами обращаться напрямую к пользователю. Файлы для обмена на трекере предоставлены пользователями сайта, и администрация не несёт ответственности за их содержание. Просьба не заливать файлы, защищенные авторскими правами, а также файлы нелегального содержания!


    _________________
    [Профиль] [ЛС]
    Показать сообщения:    
    Ответить на тему

    Текущее время: Сегодня, в 04:19

    Часовой пояс: GMT + 2



    Вы не можете начинать темы
    Вы не можете отвечать на сообщения
    Вы не можете редактировать свои сообщения
    Вы не можете удалять свои сообщения
    Вы не можете голосовать в опросах
    Вы не можете прикреплять файлы к сообщениям
    Вы не можете скачивать файлы