BitTorrentTracker PerecTracker.org
BitTorrentTracker PerecTracker.org
    
Регистрация  ·  Вход
 
 · 
Забыли пароль?

  • Карточный домик / House of Cards / Сезон: 4 / Серии: 1-13 из 13 [2016, драма, HDTVRip 1080p] MVO (Amedia) + Original + Subs (Rus, Eng)

    Ответить на тему
     
    Автор Сообщение

    rechyn

    Создавать темы 05-Мар-2016 20:41

           

    [Цитировать]

    Карточный домик / House of Cards-Год выхода: 2016
    Выпущено: США
    Жанр: драма
    Продолжительность: ~00:50:00 [серия]
    Перевод: Профессиональный (многоголосый закадровый) Amedia
    Создатель: Бо Уиллимон, Эндрю Дэвис, Майкл Доббс
    Режиссёр: Джеймс Фоули, Джон Дэвид Коулз, Карл Франклин
    В ролях: Кевин Спейси, Робин Райт, Кейт Мара, Кори Столл, Майкл Келли, Сакина Джэффри, Нэйтан Дарроу, Ламонт Истер, Махершала Али, Майкл Гилл
    Описание: Амбициозный конгрессмен от Демократической партии Фрэнк Андервуд в обмен на обещание сделать его госсекретарём помогает Гаррету Уокеру стать президентом США. Однако после выборов глава администрации президента Линда Васкез сообщает Андервуду, что он не получит должность. Взбешенные предательством Фрэнк и его жена готовы пойти на всё, чтобы отомстить новоиспечённому президенту.
    Релиз: CasStudio
    Все раздачи сериала
    Качество: HDTVRip 1080p | Семпл
    Формат: MKV
    Видео: AVC (x264) | 1920x1080p | 25.000 fps | ~5000 Kbps
    Аудио #1: AC3 | 48 KHz | 5.1 (Front: L C R Side: L R) + LFE | ~640 Kbps [RUS] - MVO
    Аудио #2: AC3 | 48 KHz | 5.1 (Front: L C R Side: L R) + LFE | ~384 Kbps [ENG] - Original
    Субтитры: Russian, English

    Media Info

    General
    Unique ID                      : 221013217809991711705800092622761064290 (0xA64598F11410AB75B8BB6D8B46D97762)
    Complete name                  : E:\VIDEOS\TV SHOWS\NETFLIX\House of Cards\House.of.Cards.S04.1080p.HDTV.DD5.1.x264-CasStudio\House.of.Cards.S04E01.1080p.HDTV.DD5.1.x264-CasStudio.mkv
    Format                         : Matroska
    Format version                 : Version 4 / Version 2
    File size                      : 1.98 GiB
    Duration                       : 47mn 20s
    Overall bit rate               : 5 984 Kbps
    Movie name                     : House.of.Cards.S04E01.1080p.HDTV.DD5.1.x264-CasStudio
    Encoded date                   : UTC 2016-03-04 22:02:36
    Writing application            : mkvmerge v8.9.0 ('Father Daughter') 64bit
    Writing library                : libebml v1.3.3 + libmatroska v1.4.4
    Video
    ID                             : 1
    Format                         : AVC
    Format/Info                    : Advanced Video Codec
    Format profile                 : High@L4.1
    Format settings, CABAC         : Yes
    Format settings, ReFrames      : 4 frames
    Codec ID                       : V_MPEG4/ISO/AVC
    Duration                       : 47mn 20s
    Bit rate                       : 5 000 Kbps
    Width                          : 1 920 pixels
    Height                         : 1 080 pixels
    Display aspect ratio           : 16:9
    Frame rate mode                : Variable
    Frame rate                     : 25.000 fps
    Color space                    : YUV
    Chroma subsampling             : 4:2:0
    Bit depth                      : 8 bits
    Scan type                      : Progressive
    Bits/(Pixel*Frame)             : 0.096
    Stream size                    : 1.64 GiB (83%)
    Writing library                : x264 core 142 r2491 24e4fed
    Encoding settings              : cabac=1 / ref=3 / deblock=1:1:-1 / analyse=0x3:0x133 / me=umh / subme=9 / psy=1 / psy_rd=1.00:0.00 / mixed_ref=1 / me_range=48 / chroma_me=1 / trellis=2 / 8x8dct=1 / cqm=0 / deadzone=21,11 / fast_pskip=0 / chroma_qp_offset=-2 / threads=36 / lookahead_threads=4 / sliced_threads=0 / slices=4 / nr=0 / decimate=1 / interlaced=0 / bluray_compat=0 / constrained_intra=0 / bframes=6 / b_pyramid=2 / b_adapt=2 / b_bias=0 / direct=3 / weightb=1 / open_gop=0 / weightp=2 / keyint=250 / keyint_min=22 / scenecut=40 / intra_refresh=0 / rc_lookahead=50 / rc=2pass / mbtree=1 / bitrate=5000 / ratetol=1.0 / qcomp=0.70 / qpmin=10 / qpmax=49 / qpstep=4 / cplxblur=20.0 / qblur=0.5 / vbv_maxrate=9000 / vbv_bufsize=2500 / nal_hrd=none / filler=0 / ip_ratio=1.40 / aq=1:1.00
    Language                       : English
    Default                        : Yes
    Forced                         : No
    Audio #1
    ID                             : 2
    Format                         : AC-3
    Format/Info                    : Audio Coding 3
    Mode extension                 : CM (complete main)
    Format settings, Endianness    : Big
    Codec ID                       : A_AC3
    Duration                       : 47mn 20s
    Bit rate mode                  : Constant
    Bit rate                       : 640 Kbps
    Channel(s)                     : 6 channels
    Channel positions              : Front: L C R, Side: L R, LFE
    Sampling rate                  : 48.0 KHz
    Frame rate                     : 31.250 fps (1536 spf)
    Compression mode               : Lossy
    Stream size                    : 217 MiB (11%)
    Language                       : Russian
    Default                        : Yes
    Forced                         : No
    Audio #2
    ID                             : 3
    Format                         : AC-3
    Format/Info                    : Audio Coding 3
    Mode extension                 : CM (complete main)
    Format settings, Endianness    : Big
    Codec ID                       : A_AC3
    Duration                       : 47mn 20s
    Bit rate mode                  : Constant
    Bit rate                       : 384 Kbps
    Channel(s)                     : 6 channels
    Channel positions              : Front: L C R, Side: L R, LFE
    Sampling rate                  : 48.0 KHz
    Frame rate                     : 31.250 fps (1536 spf)
    Compression mode               : Lossy
    Stream size                    : 130 MiB (6%)
    Language                       : English
    Default                        : No
    Forced                         : No
    Text #1
    ID                             : 4
    Format                         : UTF-8
    Codec ID                       : S_TEXT/UTF8
    Codec ID/Info                  : UTF-8 Plain Text
    Duration                       : 44mn 59s
    Bit rate                       : 115 bps
    Count of elements              : 609
    Stream size                    : 38.2 KiB (0%)
    Title                          : Full
    Language                       : Russian
    Default                        : No
    Forced                         : No
    Text #2
    ID                             : 5
    Format                         : UTF-8
    Codec ID                       : S_TEXT/UTF8
    Codec ID/Info                  : UTF-8 Plain Text
    Duration                       : 44mn 17s
    Bit rate                       : 81 bps
    Count of elements              : 662
    Stream size                    : 26.4 KiB (0%)
    Title                          : СС
    Language                       : English
    Default                        : No
    Forced                         : No

    Скриншоты

    Скачать .torrent

    Скачать торрент-файл бесплатно и на максимальной скорости!

    Как скачивать? · Что такое торрент? · Рейтинг и ограничения

    !ВНИМАНИЕ!
    Сайт не распространяет и не хранит электронные версии произведений, а занимается лишь лишь предоставлением доступа к создаваемому пользователями каталогу ссылок на торрент-файлы, которые содержат только списки хеш-сумм, убедительная просьба с жалобами обращаться напрямую к пользователю. Файлы для обмена на трекере предоставлены пользователями сайта, и администрация не несёт ответственности за их содержание. Просьба не заливать файлы, защищенные авторскими правами, а также файлы нелегального содержания!


    _________________
    [Профиль] [ЛС]
    Показать сообщения:    
    Ответить на тему

    Текущее время: Сегодня, в 16:21

    Часовой пояс: GMT + 2



    Вы не можете начинать темы
    Вы не можете отвечать на сообщения
    Вы не можете редактировать свои сообщения
    Вы не можете удалять свои сообщения
    Вы не можете голосовать в опросах
    Вы не можете прикреплять файлы к сообщениям
    Вы не можете скачивать файлы