BitTorrentTracker PerecTracker.org
BitTorrentTracker PerecTracker.org
    
Регистрация  ·  Вход
 
 · 
Забыли пароль?

  • Бой с тенью 3: Последний раунд (Алексей Сидоров) [2011, боевик, драма, криминал, приключения, DVDRip]

    Ответить на тему
     
    Автор Сообщение

    rechyn

    Создавать темы 05-Мар-2016 16:29

           

    [Цитировать]

    Бой с тенью 3: Последний раунд
    Жанр: боевик, драма, криминал, приключения
    Год выпуска: 2011
    Продолжительность: 02:01:25

    Режиссёр: Алексей Сидоров
    В ролях: Денис Никифоров, Андрей Панин, Елена Панова, Бату Хасиков, Михаил Горевой, Дмитрий Шевченко, Ольга Дибцева, Софья Мицкевич, Сергей Рябых, Шакрит Ямнарм, Сергей Рябых, Шакрит Ямнарм, Мария Куркова, Андрей Глущенко, Максим Литовченко, Юрий Копцев
    Описание: Боксер-чемпион Артем Колчин достиг всех мыслимых вершин и стал национальным героем. На ринг он больше не выходит, предпочитая тренерскую работу и бурную светскую жизнь с постоянным мельканием на ТВ, тусовками и интрижками. А дома его по утрам встречают дочка и жена Вика, которая больше не узнает в нем того Артема, которого она когда-то полюбила…
    Внешне благополучному существованию Колчина приходит конец, когда его подопечного чуть не убивает в бою знаменитый Куэрте. Артем подозревает, что тот использует некую запрещенную технику. За доказательствами ему приходится отправиться в Гонконг, где его ждет старый знакомый Вагит Валиев: он знает о Куэрте то, чего не знает больше ни один человек. Чтобы победить, Артему придется снова выйти на ринг.

    Качество видео: DVDRip
    Формат видео: AVI
    Видео: 720x400 (1.80:1), 25 fps, XviD build 73 ~1516 kbps avg, 0.21 bit/pixel
    Аудио: 48 kHz, AC3 Dolby Digital, 2/0 (L,R) ch, ~192 kbps

    Отличие

    http://perectracker.org/viewtopic.php?t=5174772
    рип с блюра, безусловно, по качеству лучше
    мой рип в качестве альтернативы с необрезанной картинкой сверху и снизу
    http://screenshotcomparison.com/comparison/164405

    MediaInfo

    Общее
    Полное имя : H:\Бой.с.тенью.2011.dvdrip_[1.46]_[teko].avi
    Формат : AVI
    Формат/Информация : Audio Video Interleave
    Размер файла : 1,46 Гбайт
    Продолжительность : 2 ч. 1 м.
    Общий поток : 1718 Кбит/сек
    Программа кодирования : VirtualDubMod 1.5.10.3 | www.virtualdub-fr.org || (build 2550/release)
    Библиотека кодирования : VirtualDubMod build 2550/release
    Видео
    Идентификатор : 0
    Формат : MPEG-4 Visual
    Профиль формата : Advanced Simple@L5
    Параметр BVOP формата : 2
    Параметр QPel формата : Нет
    Параметр GMC формата : Без точки перехода
    Параметр матрицы формата : Выборочная
    Идентификатор кодека : XVID
    Идентификатор кодека/Подсказка : XviD
    Продолжительность : 2 ч. 1 м.
    Битрейт : 1517 Кбит/сек
    Ширина : 720 пикселей
    Высота : 400 пикселей
    Соотношение сторон : 16:9
    Частота кадров : 25,000 кадров/сек
    Цветовое пространство : YUV
    Субдискретизация насыщенности : 4:2:0
    Битовая глубина : 8 бит
    Тип развёртки : Прогрессивная
    Метод сжатия : С потерями
    Бит/(Пиксели*Кадры) : 0.211
    Размер потока : 1,29 Гбайт (88%)
    Библиотека кодирования : XviD 73
    Аудио
    Идентификатор : 1
    Формат : AC-3
    Формат/Информация : Audio Coding 3
    Расширение режима : CM (complete main)
    Параметр Endianness формата : Big
    Идентификатор кодека : 2000
    Продолжительность : 2 ч. 1 м.
    Вид битрейта : Постоянный
    Битрейт : 192 Кбит/сек
    Каналы : 2 канала
    Расположение каналов : Front: L R
    Частота : 48,0 КГц
    Битовая глубина : 16 бит
    Метод сжатия : С потерями
    Размер потока : 167 Мбайт (11%)
    Выравнивание : Разделение по промежуткам
    Продолжительность промежутка : 40 мс. (1,00 видеокадр)
    Время предзагрузки промежутка : 500 мс.

    Скриншоты

    Релиз группы:

    -
    -
    Скачать .torrent

    Скачать торрент-файл бесплатно и на максимальной скорости!

    Как скачивать? · Что такое торрент? · Рейтинг и ограничения

    !ВНИМАНИЕ!
    Сайт не распространяет и не хранит электронные версии произведений, а занимается лишь лишь предоставлением доступа к создаваемому пользователями каталогу ссылок на торрент-файлы, которые содержат только списки хеш-сумм, убедительная просьба с жалобами обращаться напрямую к пользователю. Файлы для обмена на трекере предоставлены пользователями сайта, и администрация не несёт ответственности за их содержание. Просьба не заливать файлы, защищенные авторскими правами, а также файлы нелегального содержания!


    _________________
    [Профиль] [ЛС]
    Показать сообщения:    
    Ответить на тему

    Текущее время: Сегодня, в 15:47

    Часовой пояс: GMT + 2



    Вы не можете начинать темы
    Вы не можете отвечать на сообщения
    Вы не можете редактировать свои сообщения
    Вы не можете удалять свои сообщения
    Вы не можете голосовать в опросах
    Вы не можете прикреплять файлы к сообщениям
    Вы не можете скачивать файлы