BitTorrentTracker PerecTracker.org
BitTorrentTracker PerecTracker.org
    
Регистрация  ·  Вход
 
 · 
Забыли пароль?

  • Поезд на Дарджилинг. Отчаянные путешественники / The Darjeeling Limited (Уэс Андерсон) [2007, США, драма, комедия, приключения, BDRip, HD (720p, 1080p)] Dub R5 + Original + sub (rus, eng)

    Ответить на тему
     
    Автор Сообщение

    Flirldrerve

    Создавать темы 05-Мар-2016 16:29

           

    [Цитировать]

    Поезд на Дарджилинг. Отчаянные путешественники / The Darjeeling Limited
    Год выпуска: 2007
    Страна: США
    Жанр: драма, комедия, приключения
    Продолжительность: 1:31:47
    Рейтинг MPAA: R
    Рейтинг КиноПоиск: 7.14
    Рейтинг IMDb: 7.2
    Перевод: Профессиональный (дублированный) R5
    Оригинальная аудиодорожка: есть
    Cубтитры: русские и английские
    Режиссёр: Уэс Андерсон
    Сценарий: Уэс Андерсон, Роман Коппола, Джейсон Шварцман
    Продюсер: Уэс Андерсон, Роман Коппола, Лидия Дин Пилчер
    В ролях: Эдриан Броуди, Оуэн Уилсон, Джейсон Шварцман, Амара Каран, Уоллес Володарски, Варис Ахлувалиа, Ирфан Кхан, Барбет Шрёдер, Камилла Разерфорд, Кумар Паллана
    Описание:
    Три придурковатых братца, которые не разговаривали друг с другом целый год после смерти отца, оказываются в поезде, едущем через Индию. Здесь они оказались, вняв зову старшего из них воссоединиться в путешествии, которое должно помочь им понять и обрести себя, восстановив ослабшие семейные узы.
    Впрочем, вскоре сие благое действо уходит с нужного курса: недоверчивые родственники начинают переругиваться и пытаться драться, в результате чего оказываются высаженными посреди пустыни. И, конечно, это далеко не все неприятности, которые ждут их, особенно если знать, что истинная цель путешествия, затеянного искателем духовного равновесия, несколько иная, нежели он рассказывал братьям.
    Качество исходника: BDRemux http://perectracker.org/viewtopic.php?t=3233762
    Качество: BDRip
    Тип: HD (720p, 1080p)
    Контейнер: M4V
    Видео 1080p: AVC, 1920x800, 2.40:1, 8000 Kbps, 23.976 fps
    Аудио №1: Русский (дубляж), stereo, 48 KHz, 160 Kbps
    Аудио №2: Английский (оригинал), stereo, 48 KHz, 160 Kbps
    Аудио №3: Русский (дубляж), AC-3 (6 ch), 48 KHz, 384 Kbps
    Аудио №4: Английский (оригинал), AC-3 (6 ch), 48 KHz, 448 Kbps
    Видео 720p: AVC, 1280x528, 2.40:1, 3000 Kbps, 23.976 fps
    Аудио №1: Русский (дубляж), stereo, 48 KHz, 128 Kbps
    Аудио №2: Английский (оригинал), stereo, 48 KHz, 128 Kbps

    iTunes Meta Tags

    Sort Name: Darjeeling LimitedXID: Apple:vendor_id:2007-278185contentID: 274766771Encoding Tool: HandBrake 0.10.5 2016021100Copyright: © 2007 Twentieth Century Fox Film Corporation.Screenwriters: Уэс Андерсон, Роман Коппола, Джейсон ШварцманProducers: Уэс Андерсон, Роман Коппола, Лидия Дин ПилчерDirector: Уэс АндерсонCast: Эдриан Броуди, Оуэн Уилсон, Джейсон Шварцман, Амара Каран, Уоллес Володарски, Варис Ахлувалиа, Ирфан Кхан, Барбет Шрёдер, Камилла Разерфорд, Кумар ПалланаStudio: Fox SearchlightRating: 5Long Description: Три придурковатых братца, которые не разговаривали друг с другом целый год после смерти отца, оказываются в поезде, едущем через Индию. Здесь они оказались, вняв зову старшего из них воссоединиться в путешествии, которое должно помочь им понять и обрести себя, восстановив ослабшие семейные узы.Впрочем, вскоре сие благое действо уходит с нужного курса: недоверчивые родственники начинают переругиваться и пытаться драться, в результате чего оказываются высаженными посреди пустыни. И, конечно, это далеко не все неприятности, которые ждут их, особенно если знать, что истинная цель путешествия, затеянного искателем духовного равновесия, несколько иная, нежели он рассказывал братьям.Description: Три придурковатых братца, которые не разговаривали друг с другом целый год после смерти отца, оказываются в поезде, едущем через Индию...Release Date: 2007-09-03T08:00:00ZGenre: ComedyArtist: Wes AndersonName: The Darjeeling Limited
    HD 1080p:

    MediaInfo

    * * * MediaInspector for Mac - Version 2.6, build 953* * * ©2012 by Diego Massanti* * * MediaInfo Lib by Jerome Martinez* * * Raw File Report for The Darjeeling Limited (1080p HD).m4v
    GeneralComplete name : /The Darjeeling Limited/The Darjeeling Limited (1080p HD).m4vFormat : MPEG-4Format profile : Base Media / Version 2Codec ID : mp42File size : 5.84 GiBDuration : 1h 31mnOverall bit rate mode : VariableOverall bit rate : 9 114 Kbps
    Video #1ID : 1Format : AVCFormat/Info : Advanced Video CodecFormat profile : High@L4.0Format settings, CABAC : YesFormat settings, ReFrames : 4 framesCodec ID : avc1Codec ID/Info : Advanced Video CodingDuration : 1h 31mnBit rate : 8 000 KbpsWidth : 1 920 pixelsHeight : 800 pixelsDisplay aspect ratio : 2.40:1Frame rate mode : VariableFrame rate : 23.976 fpsMinimum frame rate : 23.974 fpsMaximum frame rate : 23.981 fpsColor space : YUVChroma subsampling : 4:2:0Bit depth : 8 bitsScan type : ProgressiveBits/(Pixel*Frame) : 0.217Stream size : 5.10 GiB (87%)Writing library : x264 core 142 r2479 dd79a61Encoding settings : cabac=1 / ref=4 / deblock=1:0:0 / analyse=0x3:0x113 / me=umh / subme=9 / psy=1 / psy_rd=1.00:0.00 / mixed_ref=1 / me_range=32 / chroma_me=1 / trellis=0 / 8x8dct=1 / cqm=0 / deadzone=21,11 / fast_pskip=0 / chroma_qp_offset=-2 / threads=12 / lookahead_threads=1 / sliced_threads=0 / nr=0 / decimate=1 / interlaced=0 / bluray_compat=0 / constrained_intra=0 / bframes=6 / b_pyramid=0 / b_adapt=2 / b_bias=0 / direct=3 / weightb=0 / open_gop=0 / weightp=0 / keyint=240 / keyint_min=24 / scenecut=40 / intra_refresh=0 / rc_lookahead=40 / rc=2pass / mbtree=1 / bitrate=8000 / ratetol=1.0 / qcomp=0.60 / qpmin=0 / qpmax=69 / qpstep=4 / cplxblur=20.0 / qblur=0.5 / vbv_maxrate=9500 / vbv_bufsize=9500 / nal_hrd=none / filler=0 / ip_ratio=1.40 / aq=1:1.00Language : EnglishEncoded date : UTC 2016-03-03 21:15:47Tagged date : UTC 2016-03-03 21:15:47Color primaries : BT.709Transfer characteristics : BT.709Matrix coefficients : BT.709
    Video #2ID : 8Format : JPEGCodec ID : jpegDuration : 1h 31mnBit rate mode : VariableBit rate : 1 601 bpsWidth : 640 pixelsHeight : 267 pixelsDisplay aspect ratio : 2.40:1Frame rate mode : VariableFrame rate : 0.004 fpsMinimum frame rate : 0.002 fpsMaximum frame rate : 0.008 fpsColor space : YUVChroma subsampling : 4:2:0Bit depth : 8 bitsCompression mode : LossyBits/(Pixel*Frame) : 2.342Stream size : 977 KiB (0%)Language : EnglishEncoded date : UTC 2016-03-05 04:57:12Tagged date : UTC 2016-03-05 04:57:23
    Audio #1ID : 2Format : AACFormat/Info : Advanced Audio CodecFormat profile : LCCodec ID : 40Duration : 1h 31mnBit rate mode : VariableBit rate : 147 KbpsMaximum bit rate : 237 KbpsChannel(s) : 2 channelsChannel positions : Front: L RSampling rate : 48.0 KHzCompression mode : LossyStream size : 96.7 MiB (2%)Title : StereoLanguage : RussianEncoded date : UTC 2016-03-03 21:15:47Tagged date : UTC 2016-03-03 21:15:47
    Audio #2ID : 3Format : AACFormat/Info : Advanced Audio CodecFormat profile : LCCodec ID : 40Duration : 1h 31mnBit rate mode : VariableBit rate : 153 KbpsMaximum bit rate : 273 KbpsChannel(s) : 2 channelsChannel positions : Front: L RSampling rate : 48.0 KHzCompression mode : LossyStream size : 101 MiB (2%)Title : StereoLanguage : EnglishEncoded date : UTC 2016-03-03 21:15:47Tagged date : UTC 2016-03-03 21:15:47
    Audio #3ID : 4Format : AC-3Format/Info : Audio Coding 3Mode extension : CM (complete main)Format settings, Endianness : BigCodec ID : ac-3Duration : 1h 31mnBit rate mode : ConstantBit rate : 384 KbpsChannel(s) : 6 channelsChannel positions : Front: L C R, Side: L R, LFESampling rate : 48.0 KHzBit depth : 16 bitsCompression mode : LossyStream size : 252 MiB (4%)Title : SurroundLanguage : RussianEncoded date : UTC 2016-03-03 21:15:47Tagged date : UTC 2016-03-03 21:15:47
    Audio #4ID : 5Format : AC-3Format/Info : Audio Coding 3Mode extension : CM (complete main)Format settings, Endianness : BigCodec ID : ac-3Duration : 1h 31mnBit rate mode : ConstantBit rate : 448 KbpsChannel(s) : 6 channelsChannel positions : Front: L C R, Side: L R, LFESampling rate : 48.0 KHzBit depth : 16 bitsCompression mode : LossyStream size : 294 MiB (5%)Title : SurroundLanguage : EnglishEncoded date : UTC 2016-03-03 21:15:47Tagged date : UTC 2016-03-03 21:15:47
    Text #1ID : 6Format : Timed TextMuxing mode : sbtlCodec ID : tx3gDuration : 1h 26mnBit rate mode : VariableBit rate : 66 bpsStream size : 42.2 KiB (0%)Language : RussianEncoded date : UTC 2016-03-05 04:57:12Tagged date : UTC 2016-03-05 04:57:24
    Text #2ID : 7Format : Timed TextMuxing mode : sbtlCodec ID : tx3gDuration : 1h 31mnBit rate mode : VariableBit rate : 64 bpsStream size : 42.6 KiB (0%)Language : EnglishEncoded date : UTC 2016-03-05 04:57:12Tagged date : UTC 2016-03-05 04:57:24
    MenuID : 9Codec ID : textDuration : 1h 31mnLanguage : EnglishEncoded date : UTC 2016-03-05 04:57:24Tagged date : UTC 2016-03-05 04:57:2400:00:00.000 : This Time Tomorrow00:03:36.674 : The Whitman Brothers00:07:18.604 : Dining Car Part 100:10:10.610 : Dining Car Part 200:13:49.286 : A Secret00:15:49.156 : Rita00:19:53.692 : Another Agreement00:22:17.502 : Temple of 1000 Bulls00:28:04.849 : Compartment 40/4100:34:03.040 : The Snake Escapes00:38:10.454 : Lost Train00:42:01.018 : Pepper Spray00:48:42.210 : Kicked Off00:53:54.481 : Letter From Mom00:57:02.043 : The River01:02:32.874 : The Villiage01:06:10.716 : Luftwaffe Automotive01:13:14.848 : The Funeral01:20:06.927 : International Departures01:23:49.065 : Bathroom MirrorBit rate mode : VBR

    x264 лог

    x264 [info]: frame I:875 Avg QP:15.76 size:298083x264 [info]: frame P:36869 Avg QP:19.74 size: 76929x264 [info]: frame B:94281 Avg QP:21.57 size: 25211x264 [info]: consecutive B-frames: 1.4% 9.3% 36.3% 15.8% 14.5% 13.9% 8.8%x264 [info]: mb I I16..4: 27.3% 49.5% 23.2%x264 [info]: mb P I16..4: 6.0% 7.6% 1.6% P16..4: 41.3% 26.1% 14.5% 0.0% 0.0% skip: 3.0%x264 [info]: mb B I16..4: 3.4% 0.8% 0.2% B16..8: 48.9% 7.9% 2.0% direct: 7.2% skip:29.6% L0:42.7% L1:49.8% BI: 7.5%x264 [info]: 8x8 transform intra:38.0% inter:43.1%x264 [info]: direct mvs spatial:99.7% temporal:0.3%x264 [info]: coded y,uvDC,uvAC intra: 92.3% 91.4% 80.2% inter: 24.6% 35.7% 13.4%x264 [info]: i16 v,h,dc,p: 13% 9% 51% 27%x264 [info]: i8 v,h,dc,ddl,ddr,vr,hd,vl,hu: 9% 9% 5% 10% 14% 14% 15% 12% 14%x264 [info]: i4 v,h,dc,ddl,ddr,vr,hd,vl,hu: 10% 10% 7% 8% 13% 13% 14% 11% 15%x264 [info]: i8c dc,h,v,p: 49% 18% 16% 17%x264 [info]: ref P L0: 70.6% 14.4% 9.6% 5.5%x264 [info]: ref B L0: 80.2% 11.7% 8.1%x264 [info]: kb/s:7952.79

    Скриншоты

    HD 720p:

    MediaInfo

    * * * MediaInspector for Mac - Version 2.6, build 953* * * ©2012 by Diego Massanti* * * MediaInfo Lib by Jerome Martinez* * * Raw File Report for The Darjeeling Limited (HD).m4v
    GeneralComplete name : /The Darjeeling Limited/The Darjeeling Limited (HD).m4vFormat : MPEG-4Format profile : Base Media / Version 2Codec ID : mp42File size : 2.67 GiBDuration : 1h 31mnOverall bit rate mode : VariableOverall bit rate : 4 163 KbpsVideo #1ID : 1Format : AVCFormat/Info : Advanced Video CodecFormat profile : High@L3.1Format settings, CABAC : NoFormat settings, ReFrames : 3 framesCodec ID : avc1Codec ID/Info : Advanced Video CodingDuration : 1h 31mnBit rate : 3 000 KbpsWidth : 1 280 pixelsHeight : 528 pixelsDisplay aspect ratio : 2.40:1Frame rate mode : VariableFrame rate : 23.976 fpsMinimum frame rate : 23.974 fpsMaximum frame rate : 23.981 fpsColor space : YUVChroma subsampling : 4:2:0Bit depth : 8 bitsScan type : ProgressiveBits/(Pixel*Frame) : 0.185Stream size : 1.92 GiB (72%)Writing library : x264 core 142 r2479 dd79a61Encoding settings : cabac=0 / ref=3 / deblock=1:0:0 / analyse=0x3:0x113 / me=umh / subme=9 / psy=1 / psy_rd=1.00:0.00 / mixed_ref=1 / me_range=32 / chroma_me=1 / trellis=0 / 8x8dct=1 / cqm=0 / deadzone=21,11 / fast_pskip=0 / chroma_qp_offset=-2 / threads=12 / lookahead_threads=1 / sliced_threads=0 / nr=0 / decimate=1 / interlaced=0 / bluray_compat=0 / constrained_intra=0 / bframes=3 / b_pyramid=0 / b_adapt=2 / b_bias=0 / direct=3 / weightb=0 / open_gop=0 / weightp=0 / keyint=240 / keyint_min=24 / scenecut=40 / intra_refresh=0 / rc_lookahead=40 / rc=2pass / mbtree=1 / bitrate=3000 / ratetol=1.0 / qcomp=0.60 / qpmin=0 / qpmax=69 / qpstep=4 / cplxblur=20.0 / qblur=0.5 / vbv_maxrate=9500 / vbv_bufsize=9500 / nal_hrd=none / filler=0 / ip_ratio=1.40 / aq=1:1.00Language : EnglishEncoded date : UTC 2016-03-05 07:54:35Tagged date : UTC 2016-03-05 07:54:35Color primaries : BT.709Transfer characteristics : BT.709Matrix coefficients : BT.709
    Video #2ID : 8Format : JPEGCodec ID : jpegDuration : 1h 31mnBit rate mode : VariableBit rate : 1 601 bpsWidth : 640 pixelsHeight : 267 pixelsDisplay aspect ratio : 2.40:1Frame rate mode : VariableFrame rate : 0.004 fpsMinimum frame rate : 0.002 fpsMaximum frame rate : 0.008 fpsColor space : YUVChroma subsampling : 4:2:0Bit depth : 8 bitsCompression mode : LossyBits/(Pixel*Frame) : 2.342Stream size : 977 KiB (0%)Language : EnglishEncoded date : UTC 2016-03-05 09:01:10Tagged date : UTC 2016-03-05 09:01:10
    Audio #1ID : 2Format : AACFormat/Info : Advanced Audio CodecFormat profile : LCCodec ID : 40Duration : 1h 31mnBit rate mode : VariableBit rate : 147 KbpsMaximum bit rate : 237 KbpsChannel(s) : 2 channelsChannel positions : Front: L RSampling rate : 48.0 KHzCompression mode : LossyStream size : 96.7 MiB (4%)Title : StereoLanguage : RussianEncoded date : UTC 2016-03-05 07:54:35Tagged date : UTC 2016-03-05 07:54:35
    Audio #2ID : 3Format : AACFormat/Info : Advanced Audio CodecFormat profile : LCCodec ID : 40Duration : 1h 31mnBit rate mode : VariableBit rate : 153 KbpsMaximum bit rate : 273 KbpsChannel(s) : 2 channelsChannel positions : Front: L RSampling rate : 48.0 KHzCompression mode : LossyStream size : 101 MiB (4%)Title : StereoLanguage : EnglishEncoded date : UTC 2016-03-05 07:54:35Tagged date : UTC 2016-03-05 07:54:35
    Audio #3ID : 4Format : AC-3Format/Info : Audio Coding 3Mode extension : CM (complete main)Format settings, Endianness : BigCodec ID : ac-3Duration : 1h 31mnBit rate mode : ConstantBit rate : 384 KbpsChannel(s) : 6 channelsChannel positions : Front: L C R, Side: L R, LFESampling rate : 48.0 KHzBit depth : 16 bitsCompression mode : LossyStream size : 252 MiB (9%)Title : SurroundLanguage : RussianEncoded date : UTC 2016-03-05 07:54:35Tagged date : UTC 2016-03-05 07:54:35
    Audio #4ID : 5Format : AC-3Format/Info : Audio Coding 3Mode extension : CM (complete main)Format settings, Endianness : BigCodec ID : ac-3Duration : 1h 31mnBit rate mode : ConstantBit rate : 448 KbpsChannel(s) : 6 channelsChannel positions : Front: L C R, Side: L R, LFESampling rate : 48.0 KHzBit depth : 16 bitsCompression mode : LossyStream size : 294 MiB (11%)Title : SurroundLanguage : EnglishEncoded date : UTC 2016-03-05 07:54:35Tagged date : UTC 2016-03-05 07:54:35
    Text #1ID : 6Format : Timed TextMuxing mode : sbtlCodec ID : tx3gDuration : 1h 26mnBit rate mode : VariableBit rate : 66 bpsStream size : 42.2 KiB (0%)Language : RussianEncoded date : UTC 2016-03-05 09:01:10Tagged date : UTC 2016-03-05 09:01:10
    Text #2ID : 7Format : Timed TextMuxing mode : sbtlCodec ID : tx3gDuration : 1h 31mnBit rate mode : VariableBit rate : 64 bpsStream size : 42.6 KiB (0%)Language : EnglishEncoded date : UTC 2016-03-05 09:01:10Tagged date : UTC 2016-03-05 09:01:10
    MenuID : 9Codec ID : textDuration : 1h 31mnLanguage : EnglishEncoded date : UTC 2016-03-05 09:01:10Tagged date : UTC 2016-03-05 09:01:1000:00:00.000 : This Time Tomorrow00:03:36.674 : The Whitman Brothers00:07:18.604 : Dining Car Part 100:10:10.610 : Dining Car Part 200:13:49.286 : A Secret00:15:49.156 : Rita00:19:53.692 : Another Agreement00:22:17.502 : Temple of 1000 Bulls00:28:04.849 : Compartment 40/4100:34:03.040 : The Snake Escapes00:38:10.454 : Lost Train00:42:01.018 : Pepper Spray00:48:42.210 : Kicked Off00:53:54.481 : Letter From Mom00:57:02.043 : The River01:02:32.874 : The Villiage01:06:10.716 : Luftwaffe Automotive01:13:14.848 : The Funeral01:20:06.927 : International Departures01:23:49.065 : Bathroom MirrorBit rate mode : VBR

    x264 лог

    x264 [info]: frame I:933 Avg QP:17.17 size:128066x264 [info]: frame P:47792 Avg QP:20.05 size: 29237x264 [info]: frame B:83300 Avg QP:22.41 size: 6585x264 [info]: consecutive B-frames: 3.4% 24.8% 37.6% 34.2%x264 [info]: mb I I16..4: 4.8% 54.2% 41.0%x264 [info]: mb P I16..4: 0.7% 4.3% 2.5% P16..4: 48.0% 25.8% 12.1% 0.0% 0.0% skip: 6.6%x264 [info]: mb B I16..4: 0.1% 0.6% 0.3% B16..8: 47.0% 8.3% 1.4% direct: 3.1% skip:39.2% L0:40.3% L1:52.3% BI: 7.4%x264 [info]: 8x8 transform intra:57.4% inter:49.8%x264 [info]: direct mvs spatial:86.8% temporal:13.2%x264 [info]: coded y,uvDC,uvAC intra: 88.7% 92.3% 77.3% inter: 17.6% 24.8% 8.4%x264 [info]: i16 v,h,dc,p: 35% 20% 5% 40%x264 [info]: i8 v,h,dc,ddl,ddr,vr,hd,vl,hu: 8% 8% 2% 12% 17% 15% 15% 11% 11%x264 [info]: i4 v,h,dc,ddl,ddr,vr,hd,vl,hu: 10% 11% 2% 11% 15% 15% 15% 11% 10%x264 [info]: i8c dc,h,v,p: 46% 19% 21% 14%x264 [info]: ref P L0: 72.4% 15.6% 12.0%x264 [info]: ref B L0: 78.5% 21.5%x264 [info]: kb/s:3000.53

    Скриншоты

    Скачать .torrent

    Скачать торрент-файл бесплатно и на максимальной скорости!

    Как скачивать? · Что такое торрент? · Рейтинг и ограничения

    !ВНИМАНИЕ!
    Сайт не распространяет и не хранит электронные версии произведений, а занимается лишь лишь предоставлением доступа к создаваемому пользователями каталогу ссылок на торрент-файлы, которые содержат только списки хеш-сумм, убедительная просьба с жалобами обращаться напрямую к пользователю. Файлы для обмена на трекере предоставлены пользователями сайта, и администрация не несёт ответственности за их содержание. Просьба не заливать файлы, защищенные авторскими правами, а также файлы нелегального содержания!


    _________________
    [Профиль] [ЛС]
    Показать сообщения:    
    Ответить на тему

    Текущее время: Сегодня, в 18:08

    Часовой пояс: GMT + 2



    Вы не можете начинать темы
    Вы не можете отвечать на сообщения
    Вы не можете редактировать свои сообщения
    Вы не можете удалять свои сообщения
    Вы не можете голосовать в опросах
    Вы не можете прикреплять файлы к сообщениям
    Вы не можете скачивать файлы