BitTorrentTracker PerecTracker.org
BitTorrentTracker PerecTracker.org
    
Регистрация  ·  Вход
 
 · 
Забыли пароль?

  • Разрывая замкнутый круг / Breaking Vicious Circle [Путь лидера] (Рустем Абдрашев / Rustem Abdrashev) [2014, Казахстан, биографический, TVRip]

    Ответить на тему
     
    Автор Сообщение

    rechyn

    Создавать темы 05-Мар-2016 16:29

           

    [Цитировать]

    Разрывая замкнутый круг / Breaking Vicious Circle
    Страна: Казахстан
    Жанр: биографический
    Год выпуска: 2014
    Продолжительность: 01:36:43
    Перевод: Не требуется
    Cубтитры: нет
    Режиссер: Рустем Абдрашев / Rustem Abdrashev
    В ролях: Нурлан Алимжанов, Мадина Есманова, Наталия Аринбасарова, Игорь Ясулович, Владимир Стеклов, Евгений Сидихин, Александр Рапопорт, Валентин Гафт, Евгений Стычкин, Ирина Шевчук, Александр Галибин и др.
    Описание: Четвёртая серия киноэпопеи "Путь лидера".
    В центре повествования четвёртой серии киноэпопеи "Путь лидера" оказались 70-е годы прошлого столетия. В тот период Назарбаев занимал должность секретаря парткома Карагандинского металлургического комбината. В тот период будущий лидер Казахстана предлагал не просто решения проблемы, а новаторские подходы, что, естественно вызывает негодование у закоснелых руководителей, которые привыкли работать по старому стилю. Из-за бурной деятельности молодой работник оказывается на ковре в Москве...
    Доп. информация:
    Первая серия тут: http://perectracker.org/viewtopic.php?t=5180029
    Вторая серия тут: http://perectracker.org/viewtopic.php?t=5181712
    Третья серия тут: http://perectracker.org/viewtopic.php?t=5181723
    Сэмпл: http://multi-up.com/1091775
    Качество видео: TVRip
    Формат видео: AVI
    Видео: XviD, 640x272, 25fps, 912 Kbps
    Аудио: MP3, 44.1 KHz, 2.0 ch (mono), 96 Kbps (CBR)

    MediaInfo

    General
    Complete name : C:\Documents and Settings\Geezer\Мои документы\Downloads\Путь лидера\Разрывая замкнутый круг (2014).avi
    Format : AVI
    Format/Info : Audio Video Interleave
    File size : 704 MiB
    Duration : 1h 36mn
    Overall bit rate : 1 018 Kbps
    Writing application : Lavf52.94.0
    Writing library : VirtualDub build 32507/release
    Video
    ID : 0
    Format : MPEG-4 Visual
    Format profile : Advanced Simple@L5
    Format settings, BVOP : 1
    Format settings, QPel : No
    Format settings, GMC : No warppoints
    Format settings, Matrix : Default (H.263)
    Codec ID : XVID
    Codec ID/Hint : XviD
    Duration : 1h 36mn
    Bit rate : 912 Kbps
    Width : 640 pixels
    Height : 272 pixels
    Display aspect ratio : 2.35:1
    Frame rate : 25.000 fps
    Color space : YUV
    Chroma subsampling : 4:2:0
    Bit depth : 8 bits
    Scan type : Progressive
    Compression mode : Lossy
    Bits/(Pixel*Frame) : 0.210
    Stream size : 631 MiB (90%)
    Writing library : XviD 64
    Audio
    ID : 1
    Format : MPEG Audio
    Format version : Version 1
    Format profile : Layer 3
    Mode : Joint stereo
    Mode extension : MS Stereo
    Codec ID : 55
    Codec ID/Hint : MP3
    Duration : 1h 36mn
    Bit rate mode : Constant
    Bit rate : 96.0 Kbps
    Channel(s) : 2 channels
    Sampling rate : 44.1 KHz
    Compression mode : Lossy
    Stream size : 66.4 MiB (9%)
    Alignment : Split accross interleaves
    Interleave, duration : 40 ms (1.00 video frame)
    Interleave, preload duration : 500 ms
    Writing library : LAME3.99r—

    Скриншот c названием фильма

    Скриншоты

    Скачать .torrent

    Скачать торрент-файл бесплатно и на максимальной скорости!

    Как скачивать? · Что такое торрент? · Рейтинг и ограничения

    !ВНИМАНИЕ!
    Сайт не распространяет и не хранит электронные версии произведений, а занимается лишь лишь предоставлением доступа к создаваемому пользователями каталогу ссылок на торрент-файлы, которые содержат только списки хеш-сумм, убедительная просьба с жалобами обращаться напрямую к пользователю. Файлы для обмена на трекере предоставлены пользователями сайта, и администрация не несёт ответственности за их содержание. Просьба не заливать файлы, защищенные авторскими правами, а также файлы нелегального содержания!


    _________________
    [Профиль] [ЛС]
    Показать сообщения:    
    Ответить на тему

    Текущее время: Сегодня, в 02:40

    Часовой пояс: GMT + 2



    Вы не можете начинать темы
    Вы не можете отвечать на сообщения
    Вы не можете редактировать свои сообщения
    Вы не можете удалять свои сообщения
    Вы не можете голосовать в опросах
    Вы не можете прикреплять файлы к сообщениям
    Вы не можете скачивать файлы