BitTorrentTracker PerecTracker.org
BitTorrentTracker PerecTracker.org
    
Регистрация  ·  Вход
 
 · 
Забыли пароль?

  • Маруся / Marussia (Ева Перволовичи / Eva Pervolovici) [2013, драма, семейный, WEBRip]

    Ответить на тему
     
    Автор Сообщение

    rechyn

    Создавать темы 05-Мар-2016 16:28

           

    [Цитировать]

    Маруся / MarussiaСтрана: Россия, Франция
    Жанр: драма, семейный
    Год выпуска: 2013
    Продолжительность: 01:19:58
    Перевод: профессиональный (многоголосый закадровый) [на французскую речь]
    Cубтитры: нет
    Режиссёр: Ева Перволовичи
    В ролях: Динара Друкарова, Мари-Изабель Штейнман, Георгий Баблуани, Дуня Сычева, Алексей Агеев, Мадалина Константин, Шарунас Бартас, Дени Лаван, Вячеслав Полунин, Юго Мальпер, Елена Смирнова, Алёна Казанцева, Софи Вербек
    Описание: Маруся - так зовут маленькую девочку, дочку 38-летней Ларисы, бывшей фотомодели, которая живет во Франции, стране ее мечты, где она так долго и безуспешно ищет мужчину своей мечты. "Ma Roussie" - по-французски "моя Россия". Имя девочки созвучно с названием страны, о которой пятилетняя Маруся почти ничего не помнит, разве что "там много снега, и они едят с бабушкой апельсины только зимой". Ее дом давно уже здесь во Франции, правда, у ее мамы здесь нет ни работы, ни крыши над головой. Иногда они даже не знают, где им переночевать...
    Доп. информация:

    Рип: waarheid
    Сэмпл:

    Качество видео: WEBRip
    Формат видео: AVI
    Видео: 720x400 (1.80:1), 25 fps, XviD build 73 ~1743 kbps avg, 0.24 bit/pixel
    Аудио: 48 kHz, AC3 Dolby Digital, 2/0 (L,R) ch, ~192 kbps

    MediaInfo

    Общее
    Полное имя : Z:\Marussia.2013_WEBRip_by_waarheid.avi
    Формат : AVI
    Формат/Информация : Audio Video Interleave
    Размер файла : 1,09 Гбайт
    Продолжительность : 1 ч. 19 м.
    Общий поток : 1946 Кбит/сек
    Программа кодирования : VirtualDubMod 1.5.10.3 | www.virtualdub-fr.org || (build 2550/release)
    Видео
    Идентификатор : 0
    Формат : MPEG-4 Visual
    Профиль формата : Advanced Simple@L5
    Параметр BVOP формата : 1
    Параметр QPel формата : Нет
    Параметр GMC формата : Без точки перехода
    Параметр матрицы формата : Выборочная
    Идентификатор кодека : XVID
    Идентификатор кодека/Подсказка : XviD
    Продолжительность : 1 ч. 19 м.
    Битрейт : 1744 Кбит/сек
    Ширина : 720 пикселей
    Высота : 400 пикселей
    Соотношение сторон : 16:9
    Частота кадров : 25,000 кадров/сек
    Цветовое пространство : YUV
    Субдискретизация насыщенности : 4:2:0
    Битовая глубина : 8 бит
    Тип развёртки : Прогрессивная
    Метод сжатия : С потерями
    Бит/(Пиксели*Кадры) : 0.242
    Размер потока : 998 Мбайт (90%)
    Библиотека кодирования : XviD 73
    Аудио
    Идентификатор : 1
    Формат : AC-3
    Формат/Информация : Audio Coding 3
    Расширение режима : CM (complete main)
    Параметр Endianness формата : Big
    Идентификатор кодека : 2000
    Продолжительность : 1 ч. 19 м.
    Вид битрейта : Постоянный
    Битрейт : 192 Кбит/сек
    Каналы : 2 канала
    Расположение каналов : Front: L R
    Частота : 48,0 КГц
    Частота кадров : 31,250 кадров/сек (1536 spf)
    Метод сжатия : С потерями
    Размер потока : 110 Мбайт (10%)
    Выравнивание : Разделение по промежуткам
    Продолжительность промежутка : 40 мс. (1,00 видеокадр)
    Время предзагрузки промежутка : 500 мс.

    Скриншот c названием фильма

    Скриншоты

    Скачать .torrent

    Скачать торрент-файл бесплатно и на максимальной скорости!

    Как скачивать? · Что такое торрент? · Рейтинг и ограничения

    !ВНИМАНИЕ!
    Сайт не распространяет и не хранит электронные версии произведений, а занимается лишь лишь предоставлением доступа к создаваемому пользователями каталогу ссылок на торрент-файлы, которые содержат только списки хеш-сумм, убедительная просьба с жалобами обращаться напрямую к пользователю. Файлы для обмена на трекере предоставлены пользователями сайта, и администрация не несёт ответственности за их содержание. Просьба не заливать файлы, защищенные авторскими правами, а также файлы нелегального содержания!


    _________________
    [Профиль] [ЛС]
    Показать сообщения:    
    Ответить на тему

    Текущее время: Сегодня, в 12:20

    Часовой пояс: GMT + 2



    Вы не можете начинать темы
    Вы не можете отвечать на сообщения
    Вы не можете редактировать свои сообщения
    Вы не можете удалять свои сообщения
    Вы не можете голосовать в опросах
    Вы не можете прикреплять файлы к сообщениям
    Вы не можете скачивать файлы