Register  ·  Log in
Forgot password?

  • Лунная афера / Moonwalkers (Антуан Бардо-Жаке / Antoine Bardou-Jacquet) [2015, Франция, Комедия, HDRip] Dub (iTunes)

    Reply to topic
    Author Message


    Post 05-Mar-2016 17:28



    Лунная афера / Moonwalkers

    «Based on a true conspiracy theory»
    -Страна: Франция
    Жанр: Комедия
    Год выпуска: 2015
    Продолжительность: 01:36:22-Перевод: Профессиональный (дублированный) - iTunes
    Cубтитры: нет-Режиссер: Антуан Бардо-Жаке / Antoine Bardou-Jacquet-В ролях: Руперт Гринт, Рон Перлман, Роберт Шиэн, Стивен Кэмпбелл Мур, Том Ауденарт, Кевин Бишоп, Эрик Лёмпарт, Эрика Сэйнт, Джей Бенедикт, Джон Фландерс-Описание: Тайный агент ЦРУ отправляется в Лондон, чтобы разыскать там Стэнли Кубрика и заказать ему фильм про высадку астронавтов на лунную поверхность на случай провала реальной миссии. Но вместо Кубрика агент нарывается на афериста Джонни, который устраивает съемки сверхсекретного видео на стремной студии порнофильмов, где невесомость достигается благодаря крепкому косяку…- l l -MPAA: R - Лицам до 17 лет обязательно присутствие взрослого-Качество видео: HDRip
    Формат видео: AVI
    Видео: 720x304 (2.35:1), 23.976 fps, XviD build 50, 1637 Kbps
    Аудио: 48 kHz, AC3 Dolby Digital, 3/2 (L,C,R,l,r) + LFE ch, 384 Kbps--


    Complete name : Downloads \ LuHHa1a.AFePa.2015.D.HDRip.1400MB.avi
    Format : AVI
    Format/Info : Audio Video Interleave
    File size : 1.37 GiB
    Duration : 1h 36mn
    Overall bit rate : 2 030 Kbps
    Writing application : VirtualDubMod (build 2540/release)
    Writing library : VirtualDubMod build 2540/release
    Video #0
    ID : 0
    Format : MPEG-4 Visual
    Format profile : Advanced Simple@L5
    Format settings, BVOP : 2
    Format settings, QPel : No
    Format settings, GMC : No warppoints
    Format settings, Matrix : Default (MPEG)
    Codec ID : XVID
    Codec ID/Hint : XviD
    Duration : 1h 36mn
    Bit rate : 1 637 Kbps
    Width : 720 pixels
    Height : 304 pixels
    Display aspect ratio : 2.35:1
    Frame rate : 23.976 fps
    Color space : YUV
    Chroma subsampling : 4:2:0
    Bit depth : 8 bits
    Scan type : Progressive
    Compression mode : Lossy
    Bits/(Pixel*Frame) : 0.312
    Stream size : 1.10 GiB (81%)
    Writing library : XviD 1.2.1 (UTC 2008-12-04)
    Audio #1
    ID : 1
    Format : AC-3
    Format/Info : Audio Coding 3
    Mode extension : CM (complete main)
    Format settings, Endianness : Big
    Codec ID : 2000
    Duration : 1h 36mn
    Bit rate mode : Constant
    Bit rate : 384 Kbps
    Channel(s) : 6 channels
    Channel positions : Front: L C R, Side: L R, LFE
    Sampling rate : 48.0 KHz
    Bit depth : 16 bits
    Compression mode : Lossy
    Stream size : 265 MiB (19%)
    Alignment : Split accross interleaves
    Interleave, duration : 42 ms (1.00 video frame)
    Interleave, preload duration : 500 ms

    Скриншот c названием фильма


    Download .torrent

    Download free and at maximum speed!

    How to Download? · What is a torrent? · Ratings and Limitations

    The site does not extend and does not store electronic(digital) versions of products, and only gives access to a reference catalogue created by users on torrent-files which contain only lists of the hash-sums, the earnest entreaty, with complaints(abuse) to access directly to the user. Files for an exchange on tracker are given by users of a site, and the administration does not bear the responsibility for their maintenance. The request to not fill in the files protected by copyrights, and also files of the illegal maintenance!

    [Profile] [PM]
    Display posts from previous:    
    Reply to topic

    The time now is: Today 16:55

    All times are GMT + 3 Hours

    You cannot post new topics in this forum
    You cannot reply to topics in this forum
    You cannot edit your posts in this forum
    You cannot delete your posts in this forum
    You cannot vote in polls in this forum
    You cannot attach files in this forum
    You cannot download files in this forum