BitTorrentTracker PerecTracker.org
BitTorrentTracker PerecTracker.org
    
Регистрация  ·  Вход
 
 · 
Забыли пароль?

  • [ATV3] Ставка на любовь (Артем Михалков) [2015, Россия, Комедия, мелодрама, WEB-DL, HD (1080p)] Original

    Ответить на тему
     
    Автор Сообщение

    Flirldrerve

    Создавать темы 05-Мар-2016 03:58

           

    [Цитировать]

    Ставка на любовь
    -
    4.757 / 10 5.40 / 10
    -Год выпуска: 2015
    Страна: Россия
    Жанр: Комедия, мелодрама
    Продолжительность: 01:32:01
    Перевод: Не требуется
    Оригинальная аудиодорожка: Есть
    Cубтитры: Нет
    Режиссёр: Артем Михалков
    Сценарий: Алексей Ляпоров, Сурен Мкртчян
    Продюсер: Эдуард Илоян, Денис Жалинский, Резо Гигинеишвили
    Монтаж: Дмитрий Слобцов
    В ролях: Ованнес Азоян, Андрей Бурковский, Катерина Шпица, Ян Цапник, Вадим Андреев, Ольга Тумайкина, Александр Ревва, Дмитрий Хрусталев, Ирина Чипиженко, Алла Михеева
    Сборы в России: $354 192
    Мировая премьера:
    Премьера (РФ): 11 февраля 2016, «Централ Партнершип», «All Media»
    Описание: Костя и Давид — друзья детства, и вот спустя годы им, наконец, суждено проверить дружбу на прочность. Давид собирается сделать предложение своей возлюбленной, Анне, а Костя хочет выйти в финал международного чемпионата по покеру. Два, казалось бы, совершенно несвязанных события, становятся решающими в жизни друзей, так как Давиду придется играть в покер, а Косте — спасать свадьбу друга! Смогут ли они оставаться собой и спасти положение, поменявшись местами?-Качество исходника: WEB-DL 1080p (BlueBird)
    Качество: WEB-DL
    Тип: HD (1080p)
    Контейнер: M4V
    Видео: H.264, 1920x804, 2.40:1, 4 447 Kbps, 24.000 fps
    Аудио 1: Русский/Оригинальная дорожка , AAC / 2.0 / 157 Kbps / 48.0 KHz
    Аудио 2: Русский/Оригинальная дорожка , AC-3 / 5.1 / 384 Kbps / 48.0 KHz
    -

    iTunes Meta Tags

    Sort Name: Ставка на любовь
    XID: Apple:vendor_id:2015-840460
    contentID: 1078568610
    Copyright: © 2016 Central Partnership
    Screenwriters: Алексей Ляпоров, Сурен Мкртчян
    Producers: Эдуард Илоян, Денис Жалинский, Резо Гигинеишвили
    Director: Артем Михалков
    Cast: Ованнес Азоян, Андрей Бурковский, Катерина Шпица, Ян Цапник, Вадим Андреев, Ольга Тумайкина, Александр Ревва, Дмитрий Хрусталев, Ирина Чипиженко, Алла Михеева, Александр Хошабаев
    Studio: Небо, Yellow, Black and White
    Rating: 134
    Long Description: Костя и Давид - друзья детства, и вот спустя годы им, наконец, суждено проверить дружбу на прочность. Давид собирается сделать предложение своей возлюбленной, Анне, а Костя хочет выйти в финал международного чемпионата по покеру. Два, казалось бы, совершенно несвязанных события, становятся решающими в жизни друзей, так как Давиду придется играть в покер, а Косте - спасать свадьбу друга! Смогут ли они оставаться собой и спасти положение, поменявшись местами?
    Description: Костя и Давид - друзья детства, и вот спустя годы им, наконец, суждено проверить дружбу на прочность. Давид собирается сделать предложение своей возлюбленной, Анне, а Костя хочет выйти в финал международного чемпионата по покеру. Два, казалось бы, совершенно несвязанных события, становятся решающими в жизни друзей, так как Давиду придется играть в покер, а Косте - спасать свадьбу друга! Смогут ли они оставаться собой и спасти положение, поменявшись местами?
    Release Date: 2015-01-01T08:00:00Z
    Genre: Русское кино
    Artist: Artyom Mikhalkov
    Name: Ставка на любовь

    MediaInfo

    General
    Complete name : /Users/imac/HandBrake/Stavka.na.lubov.WEB-DL.1080p.m4v
    Format : MPEG-4
    Codec ID : M4V  (M4V /M4A /mp42/isom)
    File size : 3.21 GiB
    Duration : 1h 32mn
    Overall bit rate mode : Variable
    Overall bit rate : 4 995 Kbps
    Movie name : Ставка на любовь
    Performer : Artyom Mikhalkov
    Director : Артем Михалков
    Actor : Ованнес Азоян / Андрей Бурковский / Катерина Шпица / Ян Цапник / Вадим Андреев / Ольга Тумайкина / Александр Ревва / Дмитрий Хрусталев / Ирина Чипиженко / Алла Михеева / Александр Хошабаев
    Screenplay by : Алексей Ляпоров / Сурен Мкртчян
    Producer : Эдуард Илоян / Денис Жалинский / Резо Гигинеишвили
    Production studio : Небо, Yellow, Black and White
    Genre : Русское кино
    ContentType : Short Film
    Description : Костя и Давид - друзья детства, и вот спустя годы им, наконец, суждено проверить дружбу на прочность. Давид собирается сделать предложение своей возлюбленной, Анне, а Костя хочет выйти в финал международного чемпионата по покеру. Два, казалось бы, совершенно несвязанных события, становятся решающими в жизни друзей, так как Давиду придется играть в покер, а Косте - спасать свадьбу друга! Смогут ли они оставаться собой и спасти положение, поменявшись местами?
    Recorded date : UTC 2015-01-01 08:00:00
    Encoded date : UTC 2016-03-04 22:55:21
    Tagged date : UTC 2016-03-04 22:59:44
    Copyright : © 2016 Central Partnership
    Cover : Yes
    Rating : None
    Title/Sort : Ставка на любовь
    LongDescription : Костя и Давид - друзья детства, и вот спустя годы им, наконец, суждено проверить дружбу на прочность. Давид собирается сделать предложение своей возлюбленной, Анне, а Костя хочет выйти в финал международного чемпионата по покеру. Два, казалось бы, совершенно несвязанных события, становятся решающими в жизни друзей, так как Давиду придется играть в покер, а Косте - спасать свадьбу друга! Смогут ли они оставаться собой и спасти положение, поменявшись местами?
    AppleStoreCatalogID : 1078568610
    Vendor : Apple:vendor_id:2015-840460
    ContentRating : ru-movie|12+|200|
    Video #1
    ID : 1
    Format : AVC
    Format/Info : Advanced Video Codec
    Format profile : High@L4
    Format settings, CABAC : Yes
    Format settings, ReFrames : 5 frames
    Codec ID : avc1
    Codec ID/Info : Advanced Video Coding
    Duration : 1h 32mn
    Source duration : 1h 32mn
    Bit rate : 4 447 Kbps
    Width : 1 920 pixels
    Height : 804 pixels
    Display aspect ratio : 2.40:1
    Frame rate mode : Variable
    Frame rate : 24.000 fps
    Minimum frame rate : 23.810 fps
    Maximum frame rate : 24.390 fps
    Color space : YUV
    Chroma subsampling : 4:2:0
    Bit depth : 8 bits
    Scan type : Progressive
    Bits/(Pixel*Frame) : 0.120
    Stream size : 2.86 GiB (89%)
    Source stream size : 2.86 GiB (89%)
    Title : Main Program
    Language : Russian
    Encoded date : UTC 2016-03-04 22:55:21
    Tagged date : UTC 2016-03-04 22:56:28
    Color range : Limited
    Color primaries : BT.709
    Transfer characteristics : BT.709
    Matrix coefficients : BT.709
    Menus : 4,5
    Video #2
    ID : 5
    Format : JPEG
    Codec ID : jpeg
    Duration : 1h 32mn
    Bit rate mode : Variable
    Bit rate : 1 091 bps
    Width : 640 pixels
    Height : 268 pixels
    Display aspect ratio : 2.40:1
    Frame rate mode : Variable
    Frame rate : 0.003 fps
    Minimum frame rate : 0.002 fps
    Maximum frame rate : 0.003 fps
    Color space : YUV
    Chroma subsampling : 4:2:0
    Bit depth : 8 bits
    Compression mode : Lossy
    Bits/(Pixel*Frame) : 2.120
    Stream size : 710 KiB (0%)
    Title : Chapter Images
    Language : Russian
    Default : No
    Encoded date : UTC 2016-03-04 22:56:35
    Tagged date : UTC 2016-03-04 22:56:35
    Menu For : 1
    Audio #1
    ID : 2
    Format : AAC
    Format/Info : Advanced Audio Codec
    Format profile : LC
    Codec ID : 40
    Duration : 1h 32mn
    Bit rate mode : Variable
    Bit rate : 157 Kbps
    Maximum bit rate : 258 Kbps
    Channel(s) : 2 channels
    Channel positions : Front: L R
    Sampling rate : 48.0 KHz
    Frame rate : 46.875 fps (1024 spf)
    Compression mode : Lossy
    Stream size : 103 MiB (3%)
    Title : Russian Stereo
    Language : Russian
    Default : Yes
    Alternate group : 1
    Encoded date : UTC 2016-03-04 22:55:21
    Tagged date : UTC 2016-03-04 22:55:26
    Fallback From : 3
    Audio #2
    ID : 3
    Format : AC-3
    Format/Info : Audio Coding 3
    Mode extension : CM (complete main)
    Format settings, Endianness : Big
    Codec ID : ac-3
    Duration : 1h 32mn
    Bit rate mode : Constant
    Bit rate : 384 Kbps
    Channel(s) : 6 channels
    Channel positions : Front: L C R, Side: L R, LFE
    Sampling rate : 48.0 KHz
    Frame rate : 31.250 fps (1536 spf)
    Bit depth : 16 bits
    Compression mode : Lossy
    Stream size : 253 MiB (8%)
    Title : Russian DD 5.1
    Language : Russian
    Default : Inherited From: 2
    Alternate group : 1
    Encoded date : UTC 2016-03-04 22:55:21
    Tagged date : UTC 2016-03-04 22:56:28
    Fallback To : 2
    Menu #1
    00:00:00.000 : Глава 1
    00:06:03.458 : Глава 2
    00:11:13.041 : Глава 3
    00:16:42.707 : Глава 4
    00:23:10.290 : Глава 5
    00:29:08.915 : Глава 6
    00:34:10.998 : Глава 7
    00:39:49.664 : Глава 8
    00:45:27.954 : Глава 9
    00:51:25.621 : Глава 10
    00:56:42.246 : Глава 11
    01:01:55.912 : Глава 12
    01:07:32.287 : Глава 13
    01:13:08.453 : Глава 14
    01:18:57.036 : Глава 15
    01:24:27.036 : Глава 16
    Menu #2
    ID : 4
    Codec ID : text
    Duration : 1h 32mn
    Language : Russian
    Encoded date : UTC 2016-03-04 22:56:28
    Tagged date : UTC 2016-03-04 22:56:28
    Menu For : 1
    00:00:00.000 : Глава 1
    00:06:03.458 : Глава 2
    00:11:13.041 : Глава 3
    00:16:42.707 : Глава 4
    00:23:10.290 : Глава 5
    00:29:08.915 : Глава 6
    00:34:10.998 : Глава 7
    00:39:49.664 : Глава 8
    00:45:27.954 : Глава 9
    00:51:25.621 : Глава 10
    00:56:42.246 : Глава 11
    01:01:55.912 : Глава 12
    01:07:32.287 : Глава 13
    01:13:08.453 : Глава 14
    01:18:57.036 : Глава 15
    01:24:27.036 : Глава 16
    Bit rate mode : VBR

    Скриншоты

    -

    Релиз подготовлен для просмотра на Apple TV, iPad, iPhone, iPod Touch.
    Для просмотра данного релиза на компьютере с ОС Windows рекомендуется использовать VLC media player
    Скачать .torrent

    Скачать торрент-файл бесплатно и на максимальной скорости!

    Как скачивать? · Что такое торрент? · Рейтинг и ограничения

    !ВНИМАНИЕ!
    Сайт не распространяет и не хранит электронные версии произведений, а занимается лишь лишь предоставлением доступа к создаваемому пользователями каталогу ссылок на торрент-файлы, которые содержат только списки хеш-сумм, убедительная просьба с жалобами обращаться напрямую к пользователю. Файлы для обмена на трекере предоставлены пользователями сайта, и администрация не несёт ответственности за их содержание. Просьба не заливать файлы, защищенные авторскими правами, а также файлы нелегального содержания!


    _________________
    [Профиль] [ЛС]
    Показать сообщения:    
    Ответить на тему

    Текущее время: Сегодня, в 13:41

    Часовой пояс: GMT + 2



    Вы не можете начинать темы
    Вы не можете отвечать на сообщения
    Вы не можете редактировать свои сообщения
    Вы не можете удалять свои сообщения
    Вы не можете голосовать в опросах
    Вы не можете прикреплять файлы к сообщениям
    Вы не можете скачивать файлы