BitTorrentTracker PerecTracker.org
BitTorrentTracker PerecTracker.org
    
Регистрация  ·  Вход
 
 · 
Забыли пароль?

  • Элвин и бурундуки / Alvin and the Chipmunks (Тим Хилл / Tim Hill) [2007, США, фэнтези, комедия, HDRip] Dub + 2х Sub (Rus + Eng) + Original Eng

    Ответить на тему
     
    Автор Сообщение

    rechyn

    Создавать темы 04-Мар-2016 19:07

           

    [Цитировать]

    Элвин и бурундуки / Alvin and the Chipmunks
    Страна: США
    Жанр: фэнтези, комедия
    Год выпуска: 2007
    Продолжительность: 01:31:13
    Перевод: Профессиональный (дублированный)
    Cубтитры: русские + английские
    Оригинальная аудиодорожка: английский
    Режиссер: Тим Хилл / Tim Hill
    В ролях:
    Джейсон Ли
    Дэвид Кросс
    Кэмерон Ричардсон
    Джейн Линч
    Джастин Лонг
    Мэттью Грей Гублер
    Джесси МакКартни
    Эллисон Карман
    Тиара Паркер
    Кира Веррастро
    Описание:
    Жизнь композитора была одной черной полосой до тех пор, пока он не встретил трех живых поющих бурундуков: лидера Элвина, гения Саймона и феерического Теодора. Поначалу они плохо уживаются вместе, но в конце концов Дэйв принимает бурундуков и даже становится менеджером их рок-группы, которая собирает стадионы поклонников.
    Доп. информация:

    Качество видео: HDRip
    Формат видео: AVI
    Видео: 704x384 (1.83:1), 23.976 fps, XviD build 65 ~1887 kbps avg, 0.29 bit/pixel
    Аудио 1: 48 kHz, AC3 Dolby Digital, 3/2 (L,C,R,l,r) + LFE ch, ~384 kbps - Dub
    Аудио 2: 48 kHz, AC3 Dolby Digital, 3/2 (L,C,R,l,r) + LFE ch, ~384 kbps - Eng - отдельно
    Формат субтитров: softsub (SRT)
    Семпл

    MediaInfo

    Общее
    Полное имя : D:\Torrent\Элвин и Бурундуки_1\Элвин и Бурундуки_1_1.46\Элвин и Бурундуки_1_1.46\Элвин и Бурундуки_1_1.46.avi
    Формат : AVI
    Формат/Информация : Audio Video Interleave
    Размер файла : 1,45 Гбайт
    Продолжительность : 1 ч. 31 м.
    Общий поток : 2281 Кбит/сек
    Программа кодирования : VirtualDubModRus 1.5.10.2 (build 2540/release)
    Библиотека кодирования : VirtualDubMod build 2540/release
    Видео
    Идентификатор : 0
    Формат : MPEG-4 Visual
    Профиль формата : Advanced Simple@L5
    Параметр BVOP формата : 1
    Параметр QPel формата : Нет
    Параметр GMC формата : Без точки перехода
    Параметр матрицы формата : Выборочная
    Идентификатор кодека : XVID
    Идентификатор кодека/Подсказка : XviD
    Продолжительность : 1 ч. 31 м.
    Битрейт : 1888 Кбит/сек
    Ширина : 704 пикселя
    Высота : 384 пикселя
    Соотношение сторон : 1,85:1
    Частота кадров : 23,976 кадра/сек
    Цветовое пространство : YUV
    Субдискретизация насыщенности : 4:2:0
    Битовая глубина : 8 бит
    Тип развёртки : Прогрессивная
    Метод сжатия : С потерями
    Бит/(Пиксели*Кадры) : 0.291
    Размер потока : 1,20 Гбайт (83%)
    Библиотека кодирования : XviD 65
    Аудио
    Идентификатор : 1
    Формат : AC-3
    Формат/Информация : Audio Coding 3
    Расширение режима : CM (complete main)
    Параметр Endianness формата : Big
    Идентификатор кодека : 2000
    Продолжительность : 1 ч. 31 м.
    Вид битрейта : Постоянный
    Битрейт : 384 Кбит/сек
    Каналы : 6 каналов
    Расположение каналов : Front: L C R, Side: L R, LFE
    Частота : 48,0 КГц
    Битовая глубина : 16 бит
    Метод сжатия : С потерями
    Размер потока : 251 Мбайт (17%)
    Выравнивание : Разделение по промежуткам
    Продолжительность промежутка : 42 мс. (1,00 видеокадр)
    Время предзагрузки промежутка : 500 мс.
    Общее
    Полное имя : D:\Torrent\Элвин и Бурундуки_1\Элвин и Бурундуки_1_1.46\Элвин и Бурундуки_1_1.46\Элвин и Бурундуки_1_1.46_Eng.ac3
    Формат : AC-3
    Формат/Информация : Audio Coding 3
    Размер файла : 251 Мбайт
    Продолжительность : 1 ч. 31 м.
    Режим общего битрейта : Постоянный
    Общий поток : 384 Кбит/сек
    Аудио
    Формат : AC-3
    Формат/Информация : Audio Coding 3
    Расширение режима : CM (complete main)
    Параметр Endianness формата : Big
    Продолжительность : 1 ч. 31 м.
    Вид битрейта : Постоянный
    Битрейт : 384 Кбит/сек
    Каналы : 6 каналов
    Расположение каналов : Front: L C R, Side: L R, LFE
    Частота : 48,0 КГц
    Битовая глубина : 16 бит
    Метод сжатия : С потерями
    Размер потока : 251 Мбайт (100%)
    Общее
    Полное имя : D:\Torrent\Элвин и Бурундуки_1\Элвин и Бурундуки_1_1.46\Элвин и Бурундуки_1_1.46\Элвин и Бурундуки_1_1.46_eng.srt
    Размер файла : 83,5 Кбайт
    Общее
    Полное имя : D:\Torrent\Элвин и Бурундуки_1\Элвин и Бурундуки_1_1.46\Элвин и Бурундуки_1_1.46\Элвин и Бурундуки_1_1.46_rus.srt
    Формат : SubRip
    Размер файла : 82,2 Кбайт
    Текст
    Формат : SubRip
    Метод сжатия : Без потерь

    Скриншоты

    Скачать .torrent

    Скачать торрент-файл бесплатно и на максимальной скорости!

    Как скачивать? · Что такое торрент? · Рейтинг и ограничения

    !ВНИМАНИЕ!
    Сайт не распространяет и не хранит электронные версии произведений, а занимается лишь лишь предоставлением доступа к создаваемому пользователями каталогу ссылок на торрент-файлы, которые содержат только списки хеш-сумм, убедительная просьба с жалобами обращаться напрямую к пользователю. Файлы для обмена на трекере предоставлены пользователями сайта, и администрация не несёт ответственности за их содержание. Просьба не заливать файлы, защищенные авторскими правами, а также файлы нелегального содержания!


    _________________
    [Профиль] [ЛС]
    Показать сообщения:    
    Ответить на тему

    Текущее время: Сегодня, в 14:22

    Часовой пояс: GMT + 2



    Вы не можете начинать темы
    Вы не можете отвечать на сообщения
    Вы не можете редактировать свои сообщения
    Вы не можете удалять свои сообщения
    Вы не можете голосовать в опросах
    Вы не можете прикреплять файлы к сообщениям
    Вы не можете скачивать файлы