BitTorrentTracker PerecTracker.org
BitTorrentTracker PerecTracker.org
    
Регистрация  ·  Вход
 
 · 
Забыли пароль?

  • Прости меня, моя любовь / Пробач мені, моя любов / Серии: 1-20 из 20 (Кристина Шкабар) [2012, Детектив, драма, SATRip-AVC]

    Ответить на тему
     
    Автор Сообщение

    rechyn

    Создавать темы 04-Мар-2016 18:35

           

    [Цитировать]

    Прости меня, моя любовь / Пробач мені, моя любов-Год выпуска: 2012
    Производство: Россия, Украина, «1+1 Production»
    Жанр: Детектив, драма
    Продолжительность: ~ 00:44:00 / Серия
    Субтитры: Нет-Режиссёр: Кристина Шкабар-Описание: В центре каждой серии - преступление, совершенное из-за большой любви или ради него. Главные героини - обычные женщины. Одни из них хотят безумных чувств, другие верят всем мужчинам, которые встретились на их пути, третьи готовы на все, чтобы сохранить спокойствие в собственной семье. Их жизнь меняется за одно мгновение и оказывается, что от злодейки к жертве - всего один шаг. Любовь и страсть всегда идут рядом. И люди всегда их путают. Любовь дает нам крылья, поднимает к небесам, окрыляет и умножает силы. Страсть поглощает и лишает разума. На волне страсти человек способен совершить такие поступки, о которых раньше и не подозревала.-Реклама: Отсутствует
    Спасибо за исходник: simkanetua
    Релиз: SarDmitriy
    Все раздачи сериала
    Семпл-Качество: SATRip-AVC
    Формат: MKV
    Видео кодек: AVC
    Аудио кодек: AC3
    Видео: MPEG-4 AVC, 720x400 (16:9), 25.000 fps, ~ 1800 Kbps (0.250 bit/pixel)
    Аудио: AC3, 48.0 KHz, 2 ch, 192 Kbps, CBR

    MI

    General
    Unique ID : 216631829711999251480880128275915161852 (0xA2F9C5D494A6B8BF836CB10AFC1340FC)
    Complete name : E:\Прости меня, моя любовь_(Пробач мені, моя любов)_2012_SATRip_(AVC)_SarDmitriy_Seriy_Прости меня, моя любовь_(Пробач мені, моя любов)_2012_SATRip_(AVC)_SarDmitriy.mkv
    Format : Matroska
    Format version : Version 4 / Version 2
    File size : 596 MiB
    Duration : 41mn 47s
    Overall bit rate : 1 994 Kbps
    Encoded date : UTC 2016-02-29 14:42:37
    Writing application : mkvmerge v6.4.1 ('Omega Point') built on Sep 16 2013 22:05:10
    Writing library : libebml v1.3.0 + libmatroska v1.4.1
    Video
    ID : 1
    Format : AVC
    Format/Info : Advanced Video Codec
    Format profile : High@L3
    Format settings, CABAC : No
    Format settings, ReFrames : 1 frame
    Codec ID : V_MPEG4/ISO/AVC
    Duration : 41mn 47s
    Bit rate : 1 800 Kbps
    Width : 720 pixels
    Height : 400 pixels
    Display aspect ratio : 16:9
    Frame rate mode : Constant
    Frame rate : 25.000 fps
    Color space : YUV
    Chroma subsampling : 4:2:0
    Bit depth : 8 bits
    Scan type : Progressive
    Bits/(Pixel*Frame) : 0.250
    Stream size : 527 MiB (88%)
    Writing library : x264 core 116 r2019 9cc407d
    Encoding settings : cabac=0 / ref=1 / deblock=1:0:0 / analyse=0x3:0x113 / me=hex / subme=7 / psy=1 / psy_rd=1.00:0.00 / mixed_ref=0 / me_range=16 / chroma_me=1 / trellis=1 / 8x8dct=1 / cqm=0 / deadzone=21,11 / fast_pskip=1 / chroma_qp_offset=-2 / threads=3 / sliced_threads=0 / nr=0 / decimate=1 / interlaced=0 / bluray_compat=0 / constrained_intra=0 / bframes=0 / weightp=2 / keyint=250 / keyint_min=25 / scenecut=40 / intra_refresh=0 / rc_lookahead=40 / rc=2pass / mbtree=1 / bitrate=1800 / ratetol=1.0 / qcomp=0.60 / qpmin=0 / qpmax=69 / qpstep=4 / cplxblur=20.0 / qblur=0.5 / ip_ratio=1.40 / aq=1:1.00
    Default : Yes
    Forced : No
    Audio
    ID : 2
    Format : AC-3
    Format/Info : Audio Coding 3
    Mode extension : CM (complete main)
    Format settings, Endianness : Big
    Codec ID : A_AC3
    Duration : 41mn 47s
    Bit rate mode : Constant
    Bit rate : 192 Kbps
    Channel(s) : 2 channels
    Channel positions : Front: L R
    Sampling rate : 48.0 KHz
    Compression mode : Lossy
    Stream size : 57.4 MiB (10%)
    Default : Yes
    Forced : No

    Скриншоты

    Добавлена 2-19 серия
    Скачать .torrent

    Скачать торрент-файл бесплатно и на максимальной скорости!

    Как скачивать? · Что такое торрент? · Рейтинг и ограничения

    !ВНИМАНИЕ!
    Сайт не распространяет и не хранит электронные версии произведений, а занимается лишь лишь предоставлением доступа к создаваемому пользователями каталогу ссылок на торрент-файлы, которые содержат только списки хеш-сумм, убедительная просьба с жалобами обращаться напрямую к пользователю. Файлы для обмена на трекере предоставлены пользователями сайта, и администрация не несёт ответственности за их содержание. Просьба не заливать файлы, защищенные авторскими правами, а также файлы нелегального содержания!


    _________________
    [Профиль] [ЛС]
    Показать сообщения:    
    Ответить на тему

    Текущее время: Сегодня, в 11:38

    Часовой пояс: GMT + 2



    Вы не можете начинать темы
    Вы не можете отвечать на сообщения
    Вы не можете редактировать свои сообщения
    Вы не можете удалять свои сообщения
    Вы не можете голосовать в опросах
    Вы не можете прикреплять файлы к сообщениям
    Вы не можете скачивать файлы