BitTorrentTracker PerecTracker.org
BitTorrentTracker PerecTracker.org
    
Регистрация  ·  Вход
 
 · 
Забыли пароль?

  • Любовная сеть / Серии: 1-8 из 8 (Анна Легчилова) [2015, Россия, Мелодрама, HDTVRip]

    Ответить на тему
     
    Автор Сообщение

    rechyn

    Создавать темы 04-Мар-2016 18:25

           

    [Цитировать]

    Любовная сеть
    Год выпуска: 2015
    Производство: Россия, кинокомпания Русское
    Жанр: Мелодрама
    Продолжительность: ~0:47:00 серия
    Субтитры: нет
    Режиссер: Анна Легчилова
    В ролях: Наталия Вдовина, Игорь Бочкин, Елена Валюшкина, Сергей Фролов, Анастасия Евграфова, Евгения Серебренникова, Александр Никитин (IV), Евгений Пронин, Марина Кондратьева (II), Евгений Зеленский, Софья Реснянская
    Описание: После предательства любимого и его трагической гибели, Арина уезжает жить в другую страну с мужчиной, давшим ей возможность начать всё заново. Спустя 20 лет, вернувшись на Родину, Арина из некогда яркой и жизнерадостной девушки превращается в тихую и скромную домохозяйку, во всем угождающую мужу и покорно терпящую его тиранию. Яростно отстаивая свой комфортный жизненный уклад, Арина вступает в переписку с автором книги, считающим, что семейная жизнь - не тяжелый труд, а прежде всего любовь. Убежденная в своей правоте, Арина отказывается что-либо менять в своей жизни, пока не встречает человека, которого совсем не ожидала увидеть… В какой-то момент Арина понимает, что все эти 20 лет она жила не своей жизнью, а той судьбой, которую навязывали окружающие ее люди. Арина решает изменить это и измениться сама, однако, все оказывается не так просто и тайны прошлого грозят большими разоблачениями всех тех, кого она любила и кому так доверяла.
    Все раздачи сериала: смотреть тут
    Скачать
    Качество: HDTVRip
    Формат: AVI
    Видео кодек: XviD
    Аудио кодек: АС-3
    Видео: 720x400 (1.80:1), 25 fps, XviD build 50 ~1550 kbps avg, 0.214 bit/pixel
    Аудио: 48 kHz, AC3 Dolby Digital, 2/0 (L,R) ch, ~192.00 kbps avg
    Сторонней рекламы нет!

    MediaInfo

    General
    Complete name : Y:\раздачи\Ltyubovnaya.set.2015.HDTVRip.RG.Russkie.serialy.&.Files-x.Ltyubovnaya.set.2015.HDTVRip.RG.Russkie.serialy.&.Files-x.avi
    Format : AVI
    Format/Info : Audio Video Interleave
    File size : 550 MiB
    Duration : 46mn 13s
    Overall bit rate : 1 665 Kbps
    Writing application : VirtualDubMod 1.5.10.3 | www.virtualdub-fr.org || (build 2550/release)
    Writing library : VirtualDubMod build 2550/release
    Video
    ID : 0
    Format : MPEG-4 Visual
    Format profile : Advanced Simple@L5
    Format settings, BVOP : 1
    Format settings, QPel : No
    Format settings, GMC : No warppoints
    Format settings, Matrix : Custom
    Codec ID : XVID
    Codec ID/Hint : XviD
    Duration : 46mn 13s
    Bit rate : 1 463 Kbps
    Width : 720 pixels
    Height : 400 pixels
    Display aspect ratio : 16:9
    Frame rate : 25.000 fps
    Color space : YUV
    Chroma subsampling : 4:2:0
    Bit depth : 8 bits
    Scan type : Progressive
    Compression mode : Lossy
    Bits/(Pixel*Frame) : 0.203
    Stream size : 484 MiB (88%)
    Writing library : XviD 73
    Audio
    ID : 1
    Format : AC-3
    Format/Info : Audio Coding 3
    Mode extension : CM (complete main)
    Format settings, Endianness : Big
    Codec ID : 2000
    Duration : 46mn 13s
    Bit rate mode : Constant
    Bit rate : 192 Kbps
    Channel(s) : 2 channels
    Channel positions : Front: L R
    Sampling rate : 48.0 KHz
    Compression mode : Lossy
    Stream size : 63.5 MiB (12%)
    Alignment : Split accross interleaves
    Interleave, duration : 40 ms (1.00 video frame)
    Interleave, preload duratio : 500 ms
    Рип:

    Скриншоты


    Скачать .torrent

    Скачать торрент-файл бесплатно и на максимальной скорости!

    Как скачивать? · Что такое торрент? · Рейтинг и ограничения

    !ВНИМАНИЕ!
    Сайт не распространяет и не хранит электронные версии произведений, а занимается лишь лишь предоставлением доступа к создаваемому пользователями каталогу ссылок на торрент-файлы, которые содержат только списки хеш-сумм, убедительная просьба с жалобами обращаться напрямую к пользователю. Файлы для обмена на трекере предоставлены пользователями сайта, и администрация не несёт ответственности за их содержание. Просьба не заливать файлы, защищенные авторскими правами, а также файлы нелегального содержания!


    _________________
    [Профиль] [ЛС]
    Показать сообщения:    
    Ответить на тему

    Текущее время: Сегодня, в 22:23

    Часовой пояс: GMT + 2



    Вы не можете начинать темы
    Вы не можете отвечать на сообщения
    Вы не можете редактировать свои сообщения
    Вы не можете удалять свои сообщения
    Вы не можете голосовать в опросах
    Вы не можете прикреплять файлы к сообщениям
    Вы не можете скачивать файлы