BitTorrentTracker PerecTracker.org
BitTorrentTracker PerecTracker.org
    
Регистрация  ·  Вход
 
 · 
Забыли пароль?

  • Такая работа / сезон: 2 Серии: 1-31 из 31 (Юрий Гурьянов (III)) [2015, Детектив, криминал, WEBRip]

    Ответить на тему
     
    Автор Сообщение

    rechyn

    Создавать темы 04-Мар-2016 18:09

           

    [Цитировать]

    Такая работа-2
    Год выпуска: 2015
    Производство: Россия, ЗАО Всемирные Русские Студии
    Жанр: Детектив, криминал
    Продолжительность: ~ 00:39:00
    Субтитры: нет
    Режиссёр: Юрий Гурьянов (III)
    В ролях: Оксана Базилевич, Дмитрий Паламарчук, Максим Меркулов (II), Алексей Митин, Ирина Шеянова, Сергей Колос, Александр Большаков, Владимир Тягичев, Василий Юркевич, Наталья Мызникова, Владислав Орлов (II), Юрий Чулков, Мирослав Бестаев, Игорь Власов (II), Николай Кий, Алексей Красноцветов, Евгений Санников, Александр Иванов (XVII), Руслан Китайгородский, Екатерина Тихонова, Глеб Денисов, Артем Цыпин
    Описание: Их возвращения на экран поклонники проекта ждали с большим нетерпением. Дмитрия Филиппова, Михаила Ильинского, Антона Лернера и их напарниц Евгению Стрельникову и Александру Бойко ожидает много неожиданных сюжетных поворотов, в которых найдется место детективным победам, переживаниям, дружбе и любви. К операм убойного отдела примкнет майор полиции из Москвы Константин Князев. Ему предстоит сложная задача – «влиться» в уже сложившийся коллектив и стать в нем «своим».
    Полицейские нового поколения вновь и вновь будут рисковать жизнью ради торжества справедливости. Осмотры мест преступлений, улики, экспертизы, обыски и понятые, погони и задержания. Ежедневно, «по лезвию бритвы скользя», они будут действовать в непредсказуемых обстоятельствах и на пределе возможного. Неизменно одно – дух дружбы и взаимопомощи.
    Все раздачи сериала: Такая работа
    Семпл
    Качество: WEBRip
    Формат: AVI
    Видео кодек: XviD
    Аудио кодек: АС-3
    Видео: 720x400 (1.80:1), 25 fps, XviD build 50 ~1550 kbps avg, 0.214 bit/pixel
    Аудио: 48 kHz, AC3 Dolby Digital, 2/0 (L,R) ch, ~192.00 kbps avg
    Сторонней рекламы нет!

    MediaInfo

    General
    Complete name : Y:\раздачи\Такая работа-2.2015.WEB-DLRip.RG.Russkie.serialy.&.Files-x.Такая работа-2.2015.WEB-DLRip.RG.Russkie.serialy.&.Files-x.avi
    Format : AVI
    Format/Info : Audio Video Interleave
    File size : 505 MiB
    Duration : 39mn 41s
    Overall bit rate : 1 780 Kbps
    Writing application : VirtualDubMod 1.5.10.3 (build 2550/release)
    Writing library : VirtualDubMod build 2550/release
    Video
    ID : 0
    Format : MPEG-4 Visual
    Format profile : Advanced Simple@L5
    Format settings, BVOP : 1
    Format settings, QPel : No
    Format settings, GMC : No warppoints
    Format settings, Matrix : Custom
    Codec ID : XVID
    Codec ID/Hint : XviD
    Duration : 39mn 41s
    Bit rate : 1 578 Kbps
    Width : 720 pixels
    Height : 400 pixels
    Display aspect ratio : 16:9
    Frame rate : 25.000 fps
    Color space : YUV
    Chroma subsampling : 4:2:0
    Bit depth : 8 bits
    Scan type : Progressive
    Compression mode : Lossy
    Bits/(Pixel*Frame) : 0.219
    Stream size : 448 MiB (89%)
    Writing library : XviD 73
    Audio
    ID : 1
    Format : AC-3
    Format/Info : Audio Coding 3
    Mode extension : CM (complete main)
    Format settings, Endianness : Big
    Codec ID : 2000
    Duration : 39mn 41s
    Bit rate mode : Constant
    Bit rate : 192 Kbps
    Channel(s) : 2 channels
    Channel positions : Front: L R
    Sampling rate : 44.1 KHz
    Compression mode : Lossy
    Stream size : 54.5 MiB (11%)
    Alignment : Split accross interleaves
    Interleave, duration : 40 ms (1.00 video frame)
    Interleave, preload duration : 500 ms
    Рип:

    Скриншоты


    Скачать .torrent

    Скачать торрент-файл бесплатно и на максимальной скорости!

    Как скачивать? · Что такое торрент? · Рейтинг и ограничения

    !ВНИМАНИЕ!
    Сайт не распространяет и не хранит электронные версии произведений, а занимается лишь лишь предоставлением доступа к создаваемому пользователями каталогу ссылок на торрент-файлы, которые содержат только списки хеш-сумм, убедительная просьба с жалобами обращаться напрямую к пользователю. Файлы для обмена на трекере предоставлены пользователями сайта, и администрация не несёт ответственности за их содержание. Просьба не заливать файлы, защищенные авторскими правами, а также файлы нелегального содержания!


    _________________
    [Профиль] [ЛС]
    Показать сообщения:    
    Ответить на тему

    Текущее время: Сегодня, в 13:01

    Часовой пояс: GMT + 2



    Вы не можете начинать темы
    Вы не можете отвечать на сообщения
    Вы не можете редактировать свои сообщения
    Вы не можете удалять свои сообщения
    Вы не можете голосовать в опросах
    Вы не можете прикреплять файлы к сообщениям
    Вы не можете скачивать файлы