BitTorrentTracker PerecTracker.org
BitTorrentTracker PerecTracker.org
    
Регистрация  ·  Вход
 
 · 
Забыли пароль?

  • Тальянка / Серии: 1-8 из 8 (Евгений Звездаков) [2014, Драма, HDTV 1080i]

    Ответить на тему
     
    Автор Сообщение

    rechyn

    Создавать темы 04-Мар-2016 18:06

           

    [Цитировать]

    Тальянка
    Год выпуска: 2014
    Производство: Всемирные Русские Студии
    Жанр: Драма
    Продолжительность: 00:50:00
    Режиссёр: Евгений Звездаков
    В ролях: Андрей Мерзликин, Йоанна Моро, Екатерина Гусева, Даниил Спиваковский, Игорь Скляр, Александр Коршунов, Николай Иванов (I), Савва Гусев, Павел Деревянко, Виталий Коваленко, Владимир Маслаков, Юрий Ицков, Сергей Галич, Андрей Зибров, Пётр Журавлёв (I), Владислав Резник, Владимир Щербаков, Вета Кондратьева, Роман Притула, Екатерина Тарасова, Евгений Татаров, Даниил Кокин, Анатолий Кондюбов, Любовь Макеева
    Описание: История о любви итальянской артистки и советского летчика во время Второй мировой войны и в первые послевоенные годы
    Все раздачи сериала: http://perectracker.org/tracker.php?f=41&nm=%...B%FC%FF%ED%EA%E0
    Сэмпл: http://multi-up.com/1091288
    Качество: HDTV 1080i
    Формат: TS
    Видео кодек: H.264
    Аудио кодек: AC3
    Видео: AVC at 8635 Кбит/сек Aspect : 1920 x 1080 (1.778) at 25.000 fps
    Аудио: AC-3 at 384 Кбит/сек Infos : 6 каналов, 48,0 КГц / MPEG Audio at 192 Кбит/сек Infos : 2 канала, 48,0 КГц

    MI

    Общее
    Идентификатор : 1 (0x1)
    Полное имя : E:\RECORD\Тальянка.2014.HDTV 1080i.RG Русские сериалы Серия.ts
    Формат : MPEG-TS
    Размер файла : 3,41 Гбайт
    Продолжительность : 50 м.
    Режим общего битрейта : Переменный
    Общий поток : 9696 Кбит/сек
    Видео
    Идентификатор : 305 (0x131)
    Идентификатор меню : 20105 (0x4E89)
    Формат : AVC
    Формат/Информация : Advanced Video Codec
    Профиль формата : High@L4
    Параметр CABAC формата : Да
    Параметр ReFrames формата : 4 кадра
    Идентификатор кодека : 27
    Продолжительность : 50 м.
    Битрейт : 8635 Кбит/сек
    Ширина : 1920 пикселей
    Высота : 1080 пикселей
    Соотношение сторон : 16:9
    Частота кадров : 25,000 кадров/сек
    Стандарт вещания : Component
    Цветовое пространство : YUV
    Субдискретизация насыщенности : 4:2:0
    Битовая глубина : 8 бит
    Тип развёртки : Чересстрочная
    Порядок развёртки : Верхнее поле первое
    Бит/(Пиксели*Кадры) : 0.167
    Размер потока : 3,04 Гбайт (89%)
    Цветовой диапазон : Limited
    Основные цвета : BT.709
    Характеристики трансфера : BT.709
    Коэффициенты матрицы : BT.709
    Аудио #1
    Идентификатор : 405 (0x195)
    Идентификатор меню : 20105 (0x4E89)
    Формат : AC-3
    Формат/Информация : Audio Coding 3
    Расширение режима : CM (complete main)
    Параметр Endianness формата : Big
    Идентификатор кодека : 6
    Продолжительность : 50 м.
    Вид битрейта : Постоянный
    Битрейт : 384 Кбит/сек
    Каналы : 6 каналов
    Расположение каналов : Front: L C R, Side: L R, LFE
    Частота : 48,0 КГц
    Метод сжатия : С потерями
    Задержка видео : -120 мс.
    Размер потока : 138 Мбайт (4%)
    Язык : Russian
    Аудио #2
    Идентификатор : 406 (0x196)
    Идентификатор меню : 20105 (0x4E89)
    Формат : MPEG Audio
    Версия формата : Version 1
    Профиль формата : Layer 2
    Идентификатор кодека : 3
    Продолжительность : 50 м.
    Вид битрейта : Постоянный
    Битрейт : 192 Кбит/сек
    Каналы : 2 канала
    Частота : 48,0 КГц
    Метод сжатия : С потерями
    Задержка видео : -120 мс.
    Размер потока : 69,2 Мбайт (2%)
    Язык : Russian
    Текст
    Идентификатор : 407 (0x197)-888
    Идентификатор меню : 20105 (0x4E89)
    Формат : Teletext Subtitle
    Язык : Russian
    Меню
    Идентификатор : 205 (0xCD)
    Идентификатор меню : 20105 (0x4E89)
    Продолжительность : 50 м.
    Список : 305 (0x131) (AVC) / 405 (0x195) (AC-3, Russian) / 406 (0x196) (MPEG Audio, Russian) / 407 (0x197) ()
    Язык : / Russian / Russian

    Скриншоты

    Скачать .torrent

    Скачать торрент-файл бесплатно и на максимальной скорости!

    Как скачивать? · Что такое торрент? · Рейтинг и ограничения

    !ВНИМАНИЕ!
    Сайт не распространяет и не хранит электронные версии произведений, а занимается лишь лишь предоставлением доступа к создаваемому пользователями каталогу ссылок на торрент-файлы, которые содержат только списки хеш-сумм, убедительная просьба с жалобами обращаться напрямую к пользователю. Файлы для обмена на трекере предоставлены пользователями сайта, и администрация не несёт ответственности за их содержание. Просьба не заливать файлы, защищенные авторскими правами, а также файлы нелегального содержания!


    _________________
    [Профиль] [ЛС]
    Показать сообщения:    
    Ответить на тему

    Текущее время: Сегодня, в 16:23

    Часовой пояс: GMT + 2



    Вы не можете начинать темы
    Вы не можете отвечать на сообщения
    Вы не можете редактировать свои сообщения
    Вы не можете удалять свои сообщения
    Вы не можете голосовать в опросах
    Вы не можете прикреплять файлы к сообщениям
    Вы не можете скачивать файлы