BitTorrentTracker PerecTracker.org
BitTorrentTracker PerecTracker.org
    
Регистрация  ·  Вход
 
 · 
Забыли пароль?

  • Труп Анны Фритц / El cadáver de Anna Fritz / The Corpse of Anna Fritz (Гектор Эрнандес / Hèctor Hernández Vicens) [2015, Испания, триллер, драма, BDRip] AVO (Андрей Дольский) + Original Spa

    Ответить на тему
     
    Автор Сообщение

    rechyn

    Создавать темы 03-Мар-2016 17:53

           

    [Цитировать]

    Труп Анны Фритц / El cadáver de Anna Fritz / The Corpse of Anna Fritz
    Страна: Испания
    Студия: aContraluz Films S.L., Benecé Produccions S.L., Cine de Garage, Corte y Confección de películas, Playtime Movies, Silendum Films
    Жанр: Триллер, драма
    Год выпуска: 2015
    Продолжительность: 01:14:06
    Перевод: Авторский (одноголосый закадровый) Андрей Дольский
    Cубтитры: нет
    Оригинальная аудиодорожка: Испанский
    Режиссер: Гектор Эрнандес / Hèctor Hernández Vicens
    В ролях: Дэниэл Азер, Альберт Карбо, Белен Фабра, Монтсеррат Миральес, Генри Моралес, Альба Рибас, Бернат Саумелл, Кристиан Валенсиа
    Описание: Анна Фриц, известная испанская актриса, найдена мёртвой в гостиничном номере. Она была одной из самых желанных женщин и неожиданный уход обернулся горем для поклонников её красоты. Тело Анны хранится в морге, в котором работает Пау. Пьяные друзья подговаривают парня пробраться в морг и, увидев обнажённый труп Анны, решили заняться с ней сексом. Во время столь непристойного занятия Анна вдруг открыла глаза...
    Дополнительная информация:
    Автор релиза - ylnian
    Заказ и выкуп голоса Андрея Дольского (перевод - февраль 2016 г.) - ylnian
    За наложение чистого голоса и сборку дороги спасибо rammzez
    Источник для рипа - BluRay (GER) - Die.Leiche.der.Anna.Fritz.2015.DUAL.COMPLETE.BLURAY-iFPD


    Сэмпл: https://yadi.sk/i/tNClvmghpsJ3L
    Трейлер: https://www.youtube.com/watch?v=jrIM4gy1Ge4
    Качество видео: BDRip
    Формат видео: AVI
    Видео: XviD, 720x384 (1,85:1), 24.000 fps, 1904 kbps, 0.287 bit/pixel
    Аудио 1: Русский AC3, 48000 Гц, 6ch, 448 kbps - AVO
    Аудио 2: Испанский AC3, 48000 Гц, 6ch, 448 kbps

    MediaInfo

    Общее
    Полное имя : E:\El.cadaver.de.Anna.Fritz.2015.BDRip-ylnian.avi
    Формат : AVI
    Формат/Информация : Audio Video Interleave
    Размер файла : 1,46 Гбайт
    Продолжительность : 1 ч. 14 м.
    Общий поток : 2814 Кбит/сек
    Программа кодирования : VirtualDubMod 1.5.10.2 (build 2540/release)
    Библиотека кодирования : VirtualDubMod build 2540/release
    Видео
    Идентификатор : 0
    Формат : MPEG-4 Visual
    Профиль формата : Advanced Simple@L5
    Параметр BVOP формата : 1
    Параметр QPel формата : Нет
    Параметр GMC формата : Без точки перехода
    Параметр матрицы формата : Default (MPEG)
    Идентификатор кодека : XVID
    Идентификатор кодека/Подсказка : XviD
    Продолжительность : 1 ч. 14 м.
    Битрейт : 1904 Кбит/сек
    Ширина : 720 пикселей
    Высота : 384 пикселя
    Соотношение сторон : 1,85:1
    Частота кадров : 24,000 кадра/сек
    Цветовое пространство : YUV
    Субдискретизация насыщенности : 4:2:0
    Битовая глубина : 8 бит
    Тип развёртки : Прогрессивная
    Метод сжатия : С потерями
    Бит/(Пиксели*Кадры) : 0.287
    Размер потока : 1009 Мбайт (68%)
    Библиотека кодирования : XviD 67
    Аудио #1
    Идентификатор : 1
    Формат : AC-3
    Формат/Информация : Audio Coding 3
    Расширение режима : CM (complete main)
    Параметр Endianness формата : Big
    Идентификатор кодека : 2000
    Продолжительность : 1 ч. 14 м.
    Вид битрейта : Постоянный
    Битрейт : 448 Кбит/сек
    Каналы : 6 каналов
    Расположение каналов : Front: L C R, Side: L R, LFE
    Частота : 48,0 КГц
    Частота кадров : 31,250 кадров/сек (1536 spf)
    Метод сжатия : С потерями
    Размер потока : 237 Мбайт (16%)
    Выравнивание : Разделение по промежуткам
    Продолжительность промежутка : 42 мс. (1,00 видеокадр)
    Время предзагрузки промежутка : 500 мс.
    Аудио #2
    Идентификатор : 2
    Формат : AC-3
    Формат/Информация : Audio Coding 3
    Расширение режима : CM (complete main)
    Параметр Endianness формата : Big
    Идентификатор кодека : 2000
    Продолжительность : 1 ч. 14 м.
    Вид битрейта : Постоянный
    Битрейт : 448 Кбит/сек
    Каналы : 6 каналов
    Расположение каналов : Front: L C R, Side: L R, LFE
    Частота : 48,0 КГц
    Частота кадров : 31,250 кадров/сек (1536 spf)
    Метод сжатия : С потерями
    Размер потока : 237 Мбайт (16%)
    Выравнивание : Разделение по промежуткам
    Продолжительность промежутка : 42 мс. (1,00 видеокадр)
    Время предзагрузки промежутка : 500 мс.

    Скриншот c названием фильма

    Скриншоты

    Скачать .torrent

    Скачать торрент-файл бесплатно и на максимальной скорости!

    Как скачивать? · Что такое торрент? · Рейтинг и ограничения

    !ВНИМАНИЕ!
    Сайт не распространяет и не хранит электронные версии произведений, а занимается лишь лишь предоставлением доступа к создаваемому пользователями каталогу ссылок на торрент-файлы, которые содержат только списки хеш-сумм, убедительная просьба с жалобами обращаться напрямую к пользователю. Файлы для обмена на трекере предоставлены пользователями сайта, и администрация не несёт ответственности за их содержание. Просьба не заливать файлы, защищенные авторскими правами, а также файлы нелегального содержания!


    _________________
    [Профиль] [ЛС]
    Показать сообщения:    
    Ответить на тему

    Текущее время: Сегодня, в 20:58

    Часовой пояс: GMT + 2



    Вы не можете начинать темы
    Вы не можете отвечать на сообщения
    Вы не можете редактировать свои сообщения
    Вы не можете удалять свои сообщения
    Вы не можете голосовать в опросах
    Вы не можете прикреплять файлы к сообщениям
    Вы не можете скачивать файлы