BitTorrentTracker PerecTracker.org
BitTorrentTracker PerecTracker.org
    
Регистрация  ·  Вход
 
 · 
Забыли пароль?

  • Прозрачные / Shkufim (Мишон Салмона / Mushon Salmona) [2014, Израиль, драма, HDTVRip] + Sub Rus, Heb + Original Heb

    Ответить на тему
     
    Автор Сообщение

    rechyn

    Создавать темы 03-Мар-2016 17:53

           

    [Цитировать]

    Прозрачные / Shkufim
    Страна: Израиль
    Жанр: драма
    Год выпуска: 2014
    Продолжительность: 01:28:59
    Перевод: Субтитры
    Cубтитры: русские
    Оригинальная аудиодорожка: иврит, арабский
    Режиссер: Мишон Салмона / Mushon Salmona
    В ролях: Майса Абд Эльхади, Эднан Абу Вади, Билал Алассад, Мундер Алассад, Адам Алхузиэль, Джеки Коэн, Орен Коэн, Рони Деба, Даш Эльбаз, Шилат Малка
    Описание: Райд, молодой бедуин, возвратившись после службы в армии в свою "непризнанную" деревню в пустыне, на юге Израиля, пытается найти собственную дорогу в жизни.
    Доп. информация: ,
    Сэмпл: http://www.mediafire.com/download/8b1dazefdc50tf3/Sample_-_Shkufim.avi
    Качество видео: HDTVRip
    Формат видео: AVI
    Видео: XviD 624х352 16:9 25 кадров/сек 960 Кбит/сек
    Аудио: MP3 48 КГц 2 канала 32 Кбит/сек
    Формат субтитров: русские - softsub (ASS), иврит - hardsub

    Образец субтитров

    Dialogue: 0,0:03:48.96,0:03:50.59,Default,,0,0,0,,Что случилось? Почему ты остановился здесь?
    Dialogue: 0,0:03:50.60,0:03:55.60,Default,,0,0,0,,Я договорился с подругой, она придёт сейчас.\NПойдём, хорошо проведём время.
    Dialogue: 0,0:04:06.12,0:04:10.47,Default,,0,0,0,,Хорошо. Спасибо. Пока.
    Dialogue: 0,0:04:10.48,0:04:13.35,Default,,0,0,0,,- Дима. - А, мужик. Как дела?\N- Как поживаешь, братан?
    Dialogue: 0,0:04:13.36,0:04:14.91,Default,,0,0,0,,Что нового? Всё хорошо?
    Dialogue: 0,0:04:14.92,0:04:19.71,Default,,0,0,0,,- Познакомься, это - Райд, мой двоюродный брат.\N- А, Райд. - Это - Дима, - моя удача.
    Dialogue: 0,0:04:19.72,0:04:24.72,Default,,0,0,0,,- Дай мне, братан, красный Марлборо\Nи жетоны на сдачу. - Марлборо.
    Dialogue: 0,0:04:25.88,0:04:30.88,Default,,0,0,0,,Выпей что-нибудь.
    Dialogue: 0,0:04:34.68,0:04:36.80,Default,,0,0,0,,Спасибо, братан.
    Dialogue: 0,0:04:36.90,0:04:39.59,Default,,0,0,0,,Пойдём, Райд.
    Dialogue: 0,0:05:02.56,0:05:07.56,Default,,0,0,0,,- Я пойду поем что-нибудь.\N- Хорошо, не задерживайся. Она скоро придёт.
    Dialogue: 0,0:05:25.36,0:05:28.07,Default,,0,0,0,,Осторожно, осторожно с тхиной.
    Dialogue: 0,0:05:28.08,0:05:30.95,Default,,0,0,0,,- Ой, какая я отсталая.\N- Это не ты. Питы здесь такие.
    Dialogue: 0,0:05:30.96,0:05:32.15,Default,,0,0,0,,Если бы ты не напихала салаты...
    Dialogue: 0,0:05:32.16,0:05:37.16,Default,,0,0,0,,Да, если бы ты дал свежие питы,\Nа не эти чёрствые.
    Dialogue: 0,0:05:46.80,0:05:51.80,Default,,0,0,0,,Порядок, ешь.
    Dialogue: 0,0:06:01.24,0:06:03.31,Default,,0,0,0,,- Всё, не могу, наелась.\N- Уверена?
    Dialogue: 0,0:06:03.32,0:06:08.32,Default,,0,0,0,,- Сегодня не будет ужина, я ухожу.\N- Да, да. - Ладно, пойдём.
    Dialogue: 0,0:06:40.04,0:06:42.71,Default,,0,0,0,,- Хватит уже. Ты забрала всю капусту.\N- Написано: "Салаты без ограничения", разве нет?
    Dialogue: 0,0:06:42.72,0:06:47.72,Default,,0,0,0,,- Не играй со мной.\N- Ладно, ладно.
    Dialogue: 0,0:07:08.04,0:07:12.39,Default,,0,0,0,,Тебе говорили когда-нибудь, что ты похож\Nна Йегуду Леви?
    Dialogue: 0,0:07:12.40,0:07:17.40,Default,,0,0,0,,Именно сегодня мне сказали уже.
    Dialogue: 0,0:07:18.42,0:07:22.07,Default,,0,0,0,,Ты не знаешь, кто это, верно?
    Dialogue: 0,0:07:22.08,0:07:27.08,Default,,0,0,0,,- Знаю.\N- Нет, я подумала, потому что у тебя акцент.
    Dialogue: 0,0:07:27.84,0:07:30.99,Default,,0,0,0,,Какой акцент?
    Dialogue: 0,0:07:31.00,0:07:36.00,Default,,0,0,0,,Ладно, что ты волнуешься?

    MediaInfo

    Общее
    Полное имя : Shkufim.avi
    Формат : AVI
    Формат/Информация : Audio Video Interleave
    Размер файла : 701 Мбайт
    Продолжительность : 1 ч. 28 м.
    Общий поток : 1101 Кбит/сек
    Программа кодирования : VirtualDubMod 1.5.10.2 (build 2540/release)
    Библиотека кодирования : VirtualDub build 30009/release
    Видео
    Идентификатор : 0
    Формат : MPEG-4 Visual
    Профиль формата : Advanced Simple@L5
    Параметр BVOP формата : 2
    Параметр QPel формата : Нет
    Параметр GMC формата : Без точки перехода
    Параметр матрицы формата : Default (H.263)
    Режим смешивания : Сжатый битовый поток
    Идентификатор кодека : XVID
    Идентификатор кодека/Подсказка : XviD
    Продолжительность : 1 ч. 28 м.
    Битрейт : 960 Кбит/сек
    Ширина : 624 пикселя
    Высота : 352 пикселя
    Соотношение сторон : 16:9
    Частота кадров : 25,000 кадров/сек
    Цветовое пространство : YUV
    Субдискретизация насыщенности : 4:2:0
    Битовая глубина : 8 бит
    Тип развёртки : Чересстрочная
    Порядок развёртки : Нижнее поле первое
    Метод сжатия : С потерями
    Бит/(Пиксели*Кадры) : 0.175
    Размер потока : 611 Мбайт (87%)
    Библиотека кодирования : XviD 73
    Аудио
    Идентификатор : 1
    Формат : MPEG Audio
    Версия формата : Version 1
    Профиль формата : Layer 3
    Режим : Joint stereo
    Расширение режима : MS Stereo
    Идентификатор кодека : 55
    Идентификатор кодека/Подсказка : MP3
    Продолжительность : 1 ч. 28 м.
    Вид битрейта : Постоянный
    Битрейт : 32,0 Кбит/сек
    Каналы : 2 канала
    Частота : 48,0 КГц
    Метод сжатия : С потерями
    Размер потока : 81,7 Мбайт (12%)
    Выравнивание : Соединение по промежуткам
    Продолжительность промежутка : 24 мс. (0,60 видеокадр)
    Время предзагрузки промежутка : 125 мс.
    Библиотека кодирования : LAME3.90.3

    Скриншот c названием фильма

    Скриншоты




    Скачать .torrent

    Скачать торрент-файл бесплатно и на максимальной скорости!

    Как скачивать? · Что такое торрент? · Рейтинг и ограничения

    !ВНИМАНИЕ!
    Сайт не распространяет и не хранит электронные версии произведений, а занимается лишь лишь предоставлением доступа к создаваемому пользователями каталогу ссылок на торрент-файлы, которые содержат только списки хеш-сумм, убедительная просьба с жалобами обращаться напрямую к пользователю. Файлы для обмена на трекере предоставлены пользователями сайта, и администрация не несёт ответственности за их содержание. Просьба не заливать файлы, защищенные авторскими правами, а также файлы нелегального содержания!


    _________________
    [Профиль] [ЛС]
    Показать сообщения:    
    Ответить на тему

    Текущее время: Сегодня, в 20:53

    Часовой пояс: GMT + 2



    Вы не можете начинать темы
    Вы не можете отвечать на сообщения
    Вы не можете редактировать свои сообщения
    Вы не можете удалять свои сообщения
    Вы не можете голосовать в опросах
    Вы не можете прикреплять файлы к сообщениям
    Вы не можете скачивать файлы