BitTorrentTracker PerecTracker.org
BitTorrentTracker PerecTracker.org
    
Регистрация  ·  Вход
 
 · 
Забыли пароль?

  • Наблюдатель / Le Guetteur (Микеле Плачидо / Michele Placido) [2012, Франция, Бельгия, Италия, Криминал, HDRip-AVC] MVO (Первый канал) + DVO (НТВ+) + Sub Rus, Eng + Original Fre

    Ответить на тему
     
    Автор Сообщение

    rechyn

    Создавать темы 03-Мар-2016 09:30

           

    [Цитировать]

    -Наблюдатель / Le Guetteur--Страна: Франция, Бельгия, Италия
    Жанр: Криминал
    Год выпуска: 2012
    Продолжительность: 01:28:35-Перевод 1: Профессиональный (многоголосый закадровый) Первый канал
    Перевод 2: Профессиональный (двухголосый закадровый) НТВ+
    Cубтитры: Русские, Английские
    Оригинальная аудиодорожка: Французская-Режиссер: Микеле Плачидо / Michele Placido-В ролях: Даниель Отой, Матьё Кассовиц, Оливье Гурме, Франсис Рено, Николя Бриансон, Жером Пули, Виоланте Плачидо, Лука Арджентеро, Арли Жовер, Кристиан Эк-Описание: Комиссар Маттеи уже несколько месяцев преследует банду грабителей банков. Во время очередного ограбления банду вот-вот накроют, но уйти бандитам помогает таинственный снайпер, без промаха ранящий полицейских. После анонимного звонка удаётся арестовать пресловутого снайпера, но тому удаётся бежать, чтобы вычислить предателя. Когда Маттеи узнаёт, что снайпер повинен в смерти его сына во время операции в Афганистане, дело становится личным.---Качество видео: HDRip-AVC
    Формат видео: MKV-Видео: MPEG-4 AVC, 1120x476 (2.35:1), 24.000 fps, ~2900 kbps avg, 0.226 bit/pixel
    Аудио 1: 48 kHz, AC3 Dolby Digital, 2/0 (L,R) ch, ~192 kbps avg
    Аудио 2: 48 kHz, AC3 Dolby Digital, 2/0 (L,R) ch, ~192 kbps avg
    Аудио 3: 48 kHz, AC3 Dolby Digital, 2/0 (L,R) ch, ~224 kbps avg-

    MediaInfo

    Complete name : D:\РАЗДАЧИ\Le guetteur (2012) HDRip-AVC.mkv
    Format : Matroska
    Format version : Version 2
    File size : 2.17 GiB
    Duration : 1h 28mn
    Overall bit rate : 3 507 Kbps
    Movie name : Le guetteur (2012) HDRip-AVC
    Encoded date : UTC 2016-03-02 18:47:13
    Writing application : mkvmerge v3.0.0 ('Hang up your Hang-Ups') built on Dec 12 2009 15:20:35
    Writing library : libebml v0.7.9 + libmatroska v0.8.1
    Cover : Yes
    Attachments : cover.jpg
    Video
    ID : 1
    Format : AVC
    Format/Info : Advanced Video Codec
    Format profile : High@L4.1
    Format settings, CABAC : Yes
    Format settings, ReFrames : 14 frames
    Codec ID : V_MPEG4/ISO/AVC
    Duration : 1h 28mn
    Bit rate : 2 897 Kbps
    Width : 1 120 pixels
    Height : 476 pixels
    Display aspect ratio : 2.35:1
    Frame rate mode : Constant
    Frame rate : 24.000 fps
    Color space : YUV
    Chroma subsampling : 4:2:0
    Bit depth : 8 bits
    Scan type : Progressive
    Bits/(Pixel*Frame) : 0.226
    Stream size : 1.75 GiB (81%)
    Writing library : x264 core 125 r2208 d9d2288
    Encoding settings : cabac=1 / ref=14 / deblock=1:-2:-1 / analyse=0x3:0x133 / me=umh / subme=11 / psy=1 / psy_rd=1.06:0.02 / mixed_ref=1 / me_range=32 / chroma_me=1 / trellis=2 / 8x8dct=1 / cqm=0 / deadzone=21,11 / fast_pskip=0 / chroma_qp_offset=-3 / threads=9 / lookahead_threads=1 / sliced_threads=0 / nr=0 / decimate=1 / interlaced=0 / bluray_compat=0 / constrained_intra=0 / bframes=15 / b_pyramid=2 / b_adapt=2 / b_bias=0 / direct=3 / weightb=1 / open_gop=0 / weightp=2 / keyint=240 / keyint_min=23 / scenecut=40 / intra_refresh=0 / rc_lookahead=150 / rc=2pass / mbtree=1 / bitrate=2897 / ratetol=1.0 / qcomp=0.70 / qpmin=0 / qpmax=69 / qpstep=4 / cplxblur=20.0 / qblur=0.5 / vbv_maxrate=20000 / vbv_bufsize=25000 / nal_hrd=none / ip_ratio=1.35 / aq=1:0.70
    Language : English
    Default : No
    Forced : No
    Audio #1
    ID : 2
    Format : AC-3
    Format/Info : Audio Coding 3
    Mode extension : CM (complete main)
    Format settings, Endianness : Big
    Codec ID : A_AC3
    Duration : 1h 28mn
    Bit rate mode : Constant
    Bit rate : 192 Kbps
    Channel(s) : 2 channels
    Channel positions : Front: L R
    Sampling rate : 48.0 KHz
    Frame rate : 31.250 fps (1536 spf)
    Compression mode : Lossy
    Stream size : 122 MiB (5%)
    Title : Первый канал
    Language : Russian
    Default : Yes
    Forced : No
    Audio #2
    ID : 3
    Format : AC-3
    Format/Info : Audio Coding 3
    Mode extension : CM (complete main)
    Format settings, Endianness : Big
    Codec ID : A_AC3
    Duration : 1h 28mn
    Bit rate mode : Constant
    Bit rate : 192 Kbps
    Channel(s) : 2 channels
    Channel positions : Front: L R
    Sampling rate : 48.0 KHz
    Frame rate : 31.250 fps (1536 spf)
    Compression mode : Lossy
    Stream size : 122 MiB (5%)
    Title : НТВ+
    Language : Russian
    Default : No
    Forced : No
    Audio #3
    ID : 4
    Format : AC-3
    Format/Info : Audio Coding 3
    Mode extension : CM (complete main)
    Format settings, Endianness : Big
    Codec ID : A_AC3
    Duration : 1h 28mn
    Bit rate mode : Constant
    Bit rate : 224 Kbps
    Channel(s) : 2 channels
    Channel positions : Front: L R
    Sampling rate : 48.0 KHz
    Frame rate : 31.250 fps (1536 spf)
    Compression mode : Lossy
    Stream size : 142 MiB (6%)
    Title : Original
    Language : French
    Default : No
    Forced : No
    Text #1
    ID : 5
    Format : UTF-8
    Codec ID : S_TEXT/UTF8
    Codec ID/Info : UTF-8 Plain Text
    Title : Russian
    Language : Russian
    Default : No
    Forced : No
    Text #2
    ID : 6
    Format : UTF-8
    Codec ID : S_TEXT/UTF8
    Codec ID/Info : UTF-8 Plain Text
    Title : English
    Language : English
    Default : No
    Forced : No
    Menu
    00:00:00.000 : :Chapter 01
    00:10:01.250 : :Chapter 02
    00:15:09.125 : :Chapter 03
    00:21:23.041 : :Chapter 04
    00:28:00.041 : :Chapter 05
    00:34:49.125 : :Chapter 06
    00:43:29.166 : :Chapter 07
    00:49:18.875 : :Chapter 08
    00:52:58.500 : :Chapter 09
    01:01:09.791 : :Chapter 10
    01:07:27.916 : :Chapter 11
    01:16:14.125 : :Chapter 12

    Скриншот c названием фильма

    Скриншоты

    Скачать .torrent

    Скачать торрент-файл бесплатно и на максимальной скорости!

    Как скачивать? · Что такое торрент? · Рейтинг и ограничения

    !ВНИМАНИЕ!
    Сайт не распространяет и не хранит электронные версии произведений, а занимается лишь лишь предоставлением доступа к создаваемому пользователями каталогу ссылок на торрент-файлы, которые содержат только списки хеш-сумм, убедительная просьба с жалобами обращаться напрямую к пользователю. Файлы для обмена на трекере предоставлены пользователями сайта, и администрация не несёт ответственности за их содержание. Просьба не заливать файлы, защищенные авторскими правами, а также файлы нелегального содержания!


    _________________
    [Профиль] [ЛС]
    Показать сообщения:    
    Ответить на тему

    Текущее время: Сегодня, в 07:58

    Часовой пояс: GMT + 2



    Вы не можете начинать темы
    Вы не можете отвечать на сообщения
    Вы не можете редактировать свои сообщения
    Вы не можете удалять свои сообщения
    Вы не можете голосовать в опросах
    Вы не можете прикреплять файлы к сообщениям
    Вы не можете скачивать файлы