BitTorrentTracker PerecTracker.org
BitTorrentTracker PerecTracker.org
    
Регистрация  ·  Вход
 
 · 
Забыли пароль?

  • [ATV3] Интерстеллар / Interstellar (Кристофер Нолан / Christopher Nolan ) [2014, США, Великобритания, Канада, Фантастика, драма, приключения, BDRip, HD (1080p][IMAX Edition] DUB + Original + sub (rus, eng)

    Ответить на тему
     
    Автор Сообщение

    Flirldrerve

    Создавать темы 03-Мар-2016 05:17

           

    [Цитировать]

    Интерстеллар / Interstellar
    «Следующий шаг человечества станет величайшим»
    8.616 / 10 8.60 / 10
    -Год выпуска: 2014
    Страна: США, Великобритания, Канада
    Жанр: Фантастика, драма, приключения
    Продолжительность: 02:49:04
    Перевод: Дублированный (Blu-ray CEE)
    Оригинальная аудиодорожка: Есть
    Cубтитры: Русские, Английские
    Режиссёр: Кристофер Нолан
    Сценарий: Джонатан Нолан, Кристофер Нолан
    Продюсер: Кристофер Нолан, Линда Обст, Эмма Томас
    Оператор: Хойте Ван Хойтема
    Композитор: Ханс Циммер
    Художник: Нэйтан Краули, Кенделл Эллиотт, Эггерт Кетилссон
    Монтаж: Ли Смит
    В ролях: Мэттью МакКонахи, Энн Хэтэуэй, Джессика Честейн, Маккензи Фой, Майкл Кейн, Дэвид Гяси, Уэс Бентли, Кейси Аффлек, Джон Литгоу, Мэтт Дэймон
    Бюджет: $165 000 000
    Сборы в США: $188 020 017
    Сборы в мире: + $487 100 000 = $675 120 017
    Сборы в России: $26 192 066
    Мировая премьера: 26 октября 2014
    Премьера (РФ): 6 ноября 2014, «Каро-Премьер»
    Релиз на DVD: 9 апреля 2015, «CP Дистрибуция»
    Релиз на Blu-Ray: 9 апреля 2015, «CP Дистрибуция»
    Описание: Когда засуха приводит человечество к продовольственному кризису, коллектив исследователей и учёных отправляется сквозь червоточину (которая предположительно соединяет области пространства-времени через большое расстояние) в путешествие, чтобы превзойти прежние ограничения для космических путешествий человека и переселить человечество на другую планету.-Качество исходника: BDRemux (HDClub)
    Качество: BDRip
    Тип: HD (1080p)
    Контейнер: M4V
    Видео: H.264, 1920x1080, 16:9, 8 000 Kbps, 23.976 (24000/1001) fps
    Аудио 1: Русский/Дублированный (Blu-ray CEE), AAC / 2.0 / 154 Kbps / 48.0 KHz
    Аудио 2: Английский/Оригинальная дорожка , AAC / 2.0 / 155 Kbps / 48.0 KHz
    Аудио 3: Русский/Дублированный (Blu-ray CEE), AC-3 / 5.1 / 640 Kbps / 48.0 KHz
    Аудио 4: Английский/Оригинальная дорожка , AC-3 / 5.1 / 640 Kbps / 48.0 KHz
    Субтитры 1: Русские полные
    Субтитры 2: Английские полные
    -

    iTunes Meta Tags

    Sort Name: Interstellar
    XID: Apple:vendor_id:2014-258687
    contentID: 965491522
    Copyright: © 2014 Warner Bros. Entertainment Inc. and Paramount Pictures Corporation. All Rights Reserved.
    Screenwriters: Джонатан Нолан, Кристофер Нолан
    Producers: Кристофер Нолан, Линда Обст, Эмма Томас
    Director: Кристофер Нолан
    Cast: Мэттью МакКонахи, Энн Хэтэуэй, Джессика Честейн, Маккензи Фой, Майкл Кейн, Дэвид Гяси, Уэс Бентли, Кейси Аффлек, Джон Литгоу, Мэтт Дэймон, Василий Дахненко, Марьяна Спивак, Наталья Грачева, Анна Денисова, Борис Быстров
    Studio: Warner Bros.
    Rating: 30
    Long Description: Когда засуха приводит человечество к продовольственному кризису, коллектив исследователей и учёных отправляется сквозь червоточину (которая предположительно соединяет области пространства-времени через большое расстояние) в путешествие, чтобы превзойти прежние ограничения для космических путешествий человека и переселить человечество на другую планету.
    Description: Когда засуха приводит человечество к продовольственному кризису, коллектив исследователей и учёных отправляется сквозь червоточину (которая предположительно соединяет области пространства-времени через большое расстояние) в путешествие, чтобы превзойти прежние ограничения для космических путешествий человека и переселить человечество на другую планету.
    Release Date: 2014-10-26T08:00:00Z
    Genre: Sci-Fi & Fantasy
    Artist: Christopher Nolan
    Name: Interstellar (2014)

    MediaInfo

    General
    Complete name : /Users/imac/Download-BIGBOY/Interstellar (1080p HD).m4v
    Format : MPEG-4
    Codec ID : M4V  (M4V /M4A /mp42/isom)
    File size : 11.3 GiB
    Duration : 2h 49mn
    Overall bit rate mode : Variable
    Overall bit rate : 9 593 Kbps
    Movie name : Interstellar (2014)
    Performer : Christopher Nolan
    Director : Кристофер Нолан
    Actor : Мэттью МакКонахи / Энн Хэтэуэй / Джессика Честейн / Маккензи Фой / Майкл Кейн / Дэвид Гяси / Уэс Бентли / Кейси Аффлек / Джон Литгоу / Мэтт Дэймон / Василий Дахненко / Марьяна Спивак / Наталья Грачева / Анна Денисова / Борис Быстров
    Screenplay by : Джонатан Нолан / Кристофер Нолан
    Producer : Кристофер Нолан / Линда Обст / Эмма Томас
    Production studio : Warner Bros.
    Genre : Sci-Fi & Fantasy
    ContentType : Short Film
    Description : Когда засуха приводит человечество к продовольственному кризису, коллектив исследователей и учёных отправляется сквозь червоточину (которая предположительно соединяет области пространства-времени через большое расстояние) в путешествие, чтобы превзойти прежние ограничения для космических путешествий человека и переселить человечество на другую планету.
    Recorded date : UTC 2014-10-26 08:00:00
    Encoded date : UTC 2015-03-23 22:32:04
    Tagged date : UTC 2016-03-02 21:39:51
    Copyright : © 2014 Warner Bros. Entertainment Inc. and Paramount Pictures Corporation. All Rights Reserved.
    Cover : Yes
    Rating : None
    Title/Sort : Interstellar
    LongDescription : Когда засуха приводит человечество к продовольственному кризису, коллектив исследователей и учёных отправляется сквозь червоточину (которая предположительно соединяет области пространства-времени через большое расстояние) в путешествие, чтобы превзойти прежние ограничения для космических путешествий человека и переселить человечество на другую планету.
    AppleStoreCatalogID : 965491522
    Vendor : Apple:vendor_id:2014-258687
    ContentRating : br-movie|12|100|
    Video #1
    ID : 1
    Format : AVC
    Format/Info : Advanced Video Codec
    Format profile : High@L4
    Format settings, CABAC : Yes
    Format settings, ReFrames : 4 frames
    Codec ID : avc1
    Codec ID/Info : Advanced Video Coding
    Duration : 2h 49mn
    Bit rate : 8 000 Kbps
    Width : 1 920 pixels
    Height : 1 080 pixels
    Display aspect ratio : 16:9
    Frame rate mode : Variable
    Frame rate : 23.976 (24000/1001) fps
    Minimum frame rate : 23.810 fps
    Maximum frame rate : 24.272 fps
    Color space : YUV
    Chroma subsampling : 4:2:0
    Bit depth : 8 bits
    Scan type : Progressive
    Bits/(Pixel*Frame) : 0.161
    Stream size : 9.44 GiB (83%)
    Title : Main Program
    Writing library : x264 core 142 r2479 dd79a61
    Encoding settings : cabac=1 / ref=4 / deblock=1:0:0 / analyse=0x3:0x133 / me=umh / subme=10 / psy=1 / psy_rd=1.00:0.00 / mixed_ref=1 / me_range=32 / chroma_me=1 / trellis=2 / 8x8dct=1 / cqm=0 / deadzone=21,11 / fast_pskip=1 / chroma_qp_offset=-2 / threads=36 / lookahead_threads=4 / sliced_threads=0 / nr=0 / decimate=1 / interlaced=0 / bluray_compat=0 / constrained_intra=0 / bframes=4 / b_pyramid=2 / b_adapt=2 / b_bias=0 / direct=3 / weightb=1 / open_gop=0 / weightp=2 / keyint=240 / keyint_min=24 / scenecut=40 / intra_refresh=0 / rc_lookahead=40 / rc=2pass / mbtree=0 / bitrate=8000 / ratetol=1.0 / qcomp=0.60 / qpmin=0 / qpmax=69 / qpstep=4 / cplxblur=20.0 / qblur=0.5 / vbv_maxrate=25000 / vbv_bufsize=25000 / nal_hrd=none / filler=0 / ip_ratio=1.40 / pb_ratio=1.30 / aq=1:1.00
    Language : English
    Encoded date : UTC 2015-03-23 22:32:04
    Tagged date : UTC 2015-03-23 22:33:32
    Color range : Limited
    Color primaries : BT.709
    Transfer characteristics : BT.709
    Matrix coefficients : BT.709
    Menus : 8,9
    Video #2
    ID : 9
    Format : JPEG
    Codec ID : jpeg
    Duration : 2h 49mn
    Bit rate mode : Variable
    Bit rate : 565 bps
    Width : 640 pixels
    Height : 360 pixels
    Display aspect ratio : 16:9
    Frame rate mode : Variable
    Frame rate : 0.002 fps
    Minimum frame rate : 0.001 fps
    Maximum frame rate : 0.004 fps
    Color space : YUV
    Chroma subsampling : 4:2:0
    Bit depth : 8 bits
    Compression mode : Lossy
    Bits/(Pixel*Frame) : 1.226
    Stream size : 690 KiB (0%)
    Title : Chapter Images
    Language : English
    Default : No
    Encoded date : UTC 2015-03-23 22:37:39
    Tagged date : UTC 2015-03-23 22:37:40
    Menu For : 1
    Audio #1
    ID : 2
    Format : AAC
    Format/Info : Advanced Audio Codec
    Format profile : LC
    Codec ID : 40
    Duration : 2h 49mn
    Bit rate mode : Variable
    Bit rate : 154 Kbps
    Maximum bit rate : 271 Kbps
    Channel(s) : 2 channels
    Channel positions : Front: L R
    Sampling rate : 48.0 KHz
    Frame rate : 46.875 fps (1024 spf)
    Compression mode : Lossy
    Stream size : 186 MiB (2%)
    Title : Russian Stereo
    Language : Russian
    Default : Yes
    Alternate group : 1
    Encoded date : UTC 2015-03-23 22:34:44
    Tagged date : UTC 2015-03-23 22:34:55
    Fallback From : 4
    Audio #2
    ID : 3
    Format : AAC
    Format/Info : Advanced Audio Codec
    Format profile : LC
    Codec ID : 40
    Duration : 2h 49mn
    Bit rate mode : Variable
    Bit rate : 155 Kbps
    Maximum bit rate : 268 Kbps
    Channel(s) : 2 channels
    Channel positions : Front: L R
    Sampling rate : 48.0 KHz
    Frame rate : 46.875 fps (1024 spf)
    Compression mode : Lossy
    Stream size : 187 MiB (2%)
    Title : English Stereo
    Language : English
    Default : No
    Alternate group : 1
    Encoded date : UTC 2015-03-23 22:34:44
    Tagged date : UTC 2015-03-23 22:34:55
    Fallback From : 5
    Audio #3
    ID : 4
    Format : AC-3
    Format/Info : Audio Coding 3
    Mode extension : CM (complete main)
    Format settings, Endianness : Big
    Codec ID : ac-3
    Duration : 2h 49mn
    Bit rate mode : Constant
    Bit rate : 640 Kbps
    Channel(s) : 6 channels
    Channel positions : Front: L C R, Side: L R, LFE
    Sampling rate : 48.0 KHz
    Frame rate : 31.250 fps (1536 spf)
    Bit depth : 16 bits
    Compression mode : Lossy
    Stream size : 774 MiB (7%)
    Title : Russian DD 5.1
    Language : Russian
    Default : Inherited From: 2
    Alternate group : 1
    Encoded date : UTC 2015-03-23 22:34:44
    Tagged date : UTC 2015-03-23 22:34:53
    Fallback To : 2
    Audio #4
    ID : 5
    Format : AC-3
    Format/Info : Audio Coding 3
    Mode extension : CM (complete main)
    Format settings, Endianness : Big
    Codec ID : ac-3
    Duration : 2h 49mn
    Bit rate mode : Constant
    Bit rate : 640 Kbps
    Channel(s) : 6 channels
    Channel positions : Front: L C R, Side: L R, LFE
    Sampling rate : 48.0 KHz
    Frame rate : 31.250 fps (1536 spf)
    Bit depth : 16 bits
    Compression mode : Lossy
    Stream size : 774 MiB (7%)
    Title : English DD 5.1
    Language : English
    Default : No
    Alternate group : 1
    Encoded date : UTC 2015-03-23 22:34:44
    Tagged date : UTC 2015-03-23 22:34:53
    Fallback To : 3
    Text #1
    ID : 6
    Format : Timed Text
    Muxing mode : sbtl
    Codec ID : tx3g
    Duration : 2h 43mn
    Bit rate mode : Variable
    Bit rate : 101 bps
    Stream size : 121 KiB (0%)
    Title : Russian full
    Language : Russian
    Default : Yes
    Forced : No
    Alternate group : 2
    Encoded date : UTC 2015-03-23 22:37:30
    Tagged date : UTC 2015-03-23 22:37:30
    Text #2
    ID : 7
    Format : Timed Text
    Muxing mode : sbtl
    Codec ID : tx3g
    Duration : 2h 43mn
    Bit rate mode : Variable
    Bit rate : 70 bps
    Stream size : 83.7 KiB (0%)
    Title : English full
    Language : English
    Default : No
    Forced : No
    Alternate group : 2
    Encoded date : UTC 2015-03-23 22:37:30
    Tagged date : UTC 2015-03-23 22:37:30
    Menu #1
    00:00:00.000 : 00:00:00.000
    00:09:35.534 : 00:09:35.491
    00:17:12.365 : 00:17:12.322
    00:25:00.791 : 00:25:00.749
    00:35:45.435 : 00:35:45.393
    00:42:16.910 : 00:42:16.867
    00:50:19.934 : 00:50:19.891
    00:54:48.118 : 00:54:48.076
    00:58:59.745 : 00:58:59.702
    01:06:15.055 : 01:06:15.012
    01:17:28.227 : 01:17:28.185
    01:25:32.044 : 01:25:32.001
    01:34:32.042 : 01:34:31.999
    01:46:14.744 : 01:46:14.701
    01:55:34.595 : 01:55:34.552
    02:02:14.411 : 02:02:14.368
    02:12:56.886 : 02:12:56.843
    02:20:53.862 : 02:20:53.820
    02:35:12.136 : 02:35:12.094
    02:43:59.872 : 02:43:59.830
    Menu #2
    ID : 8
    Codec ID : text
    Duration : 2h 49mn
    Language : English
    Encoded date : UTC 2015-03-23 22:37:30
    Tagged date : UTC 2015-03-23 22:37:30
    Bit rate mode : CBR
    Menu For : 1
    00:00:00.000 : 00:00:00.000
    00:09:35.534 : 00:09:35.491
    00:17:12.365 : 00:17:12.322
    00:25:00.791 : 00:25:00.749
    00:35:45.435 : 00:35:45.393
    00:42:16.910 : 00:42:16.867
    00:50:19.934 : 00:50:19.891
    00:54:48.118 : 00:54:48.076
    00:58:59.745 : 00:58:59.702
    01:06:15.055 : 01:06:15.012
    01:17:28.227 : 01:17:28.185
    01:25:32.044 : 01:25:32.001
    01:34:32.042 : 01:34:31.999
    01:46:14.744 : 01:46:14.701
    01:55:34.595 : 01:55:34.552
    02:02:14.411 : 02:02:14.368
    02:12:56.886 : 02:12:56.843
    02:20:53.862 : 02:20:53.820
    02:35:12.136 : 02:35:12.094
    02:43:59.872 : 02:43:59.830

    x264 лог

    x264 [info]: frame I:2066  Avg QP:14.49  size:180137
    x264 [info]: frame P:67328 Avg QP:17.55  size: 71106
    x264 [info]: frame B:173817 Avg QP:19.64  size: 28633
    x264 [info]: consecutive B-frames:  3.6%  6.5%  7.0% 55.7% 27.2%
    x264 [info]: mb I  I16..4: 17.9% 74.1%  7.9%
    x264 [info]: mb P  I16..4:  1.7% 14.2%  0.9%  P16..4: 37.9% 17.7%  8.9%  0.1%  0.0%    skip:18.6%
    x264 [info]: mb B  I16..4:  0.1%  0.9%  0.1%  B16..8: 45.5%  8.4%  1.9%  direct: 4.2%  skip:39.0%  L0:48.3% L1:45.9% BI: 5.8%
    x264 [info]: 8x8 transform intra:83.0% inter:74.1%
    x264 [info]: direct mvs  spatial:98.8% temporal:1.2%
    x264 [info]: coded y,uvDC,uvAC intra: 78.3% 69.8% 39.7% inter: 26.9% 17.8% 0.8%
    x264 [info]: i16 v,h,dc,p: 43% 18%  8% 30%
    x264 [info]: i8 v,h,dc,ddl,ddr,vr,hd,vl,hu:  9%  9% 17%  9% 12% 10% 12%  9% 12%
    x264 [info]: i4 v,h,dc,ddl,ddr,vr,hd,vl,hu: 10% 13%  6%  8% 14% 12% 15%  9% 13%
    x264 [info]: i8c dc,h,v,p: 49% 25% 16% 11%
    x264 [info]: Weighted P-Frames: Y:4.3% UV:1.3%
    x264 [info]: ref P L0: 54.2% 11.2% 23.3%  9.9%  1.2%  0.0%
    x264 [info]: ref B L0: 87.8%  9.8%  2.5%
    x264 [info]: ref B L1: 93.6%  6.4%
    x264 [info]: kb/s:7994.12

    Скриншоты

    -

    Релиз подготовлен для просмотра на Apple TV, iPad, iPhone, iPod Touch.
    Для просмотра данного релиза на компьютере с ОС Windows рекомендуется использовать VLC media player
    Скачать .torrent

    Скачать торрент-файл бесплатно и на максимальной скорости!

    Как скачивать? · Что такое торрент? · Рейтинг и ограничения

    !ВНИМАНИЕ!
    Сайт не распространяет и не хранит электронные версии произведений, а занимается лишь лишь предоставлением доступа к создаваемому пользователями каталогу ссылок на торрент-файлы, которые содержат только списки хеш-сумм, убедительная просьба с жалобами обращаться напрямую к пользователю. Файлы для обмена на трекере предоставлены пользователями сайта, и администрация не несёт ответственности за их содержание. Просьба не заливать файлы, защищенные авторскими правами, а также файлы нелегального содержания!


    _________________
    [Профиль] [ЛС]
    Показать сообщения:    
    Ответить на тему

    Текущее время: Сегодня, в 16:14

    Часовой пояс: GMT + 2



    Вы не можете начинать темы
    Вы не можете отвечать на сообщения
    Вы не можете редактировать свои сообщения
    Вы не можете удалять свои сообщения
    Вы не можете голосовать в опросах
    Вы не можете прикреплять файлы к сообщениям
    Вы не можете скачивать файлы