Register  ·  Log in
Forgot password?

  • Поженить Бэрри / Someone Marry Barry (Роб Перлштейн / Rob Pearlstein) [2014, США, Комедия, HDRip] MVO (iTunes)

    Reply to topic
    Author Message


    Post 03-Mar-2016 02:00



    -Поженить Бэрри / Someone Marry Barry--Страна: США
    Жанр: Комедия
    Год выпуска: 2014
    Продолжительность: 01:27:02-Перевод: Профессиональный (многоголосый закадровый) iTunes-Cубтитры: нет
    Оригинальная аудиодорожка: нет-Режиссер: Роб Перлштейн / Rob Pearlstein-В ролях: Тайлер Лабин, Дэймон Уайанс мл., Люси Панч, Хэйз МакАртур, Томас Миддлдитч, Аманда Ланд, Фрэнки Шоу, Уайатт Олефф, Дж. Робин Миллер, Джинджер Гонзага-Описание: Трое друзей, желая избавиться от общества своего невыносимого друга, решают найти ему жену, но когда он встречает женщину такую же, как он, все становится только хуже…---Качество видео: HDRip
    Формат видео: AVI-Видео: XviD, 720x384 (1.85:1), 23.976 fps, ~2000 kbps avg, 0.30 bit/pixel
    Аудио: 48 kHz, AC3 Dolby Digital, 3/2 (L,C,R,l,r) + LFE ch, ~384 kbps avg-


    Complete name : D:\РАЗДАЧИ\Someone Marry Barry (2014) HDRip.avi
    Format : AVI
    Format/Info : Audio Video Interleave
    File size : 1.45 GiB
    Duration : 1h 27mn
    Overall bit rate : 2 390 Kbps
    Writing application : VirtualDubMod (build 2540/release)
    Writing library : VirtualDubMod build 2540/release
    ID : 0
    Format : MPEG-4 Visual
    Format profile : Advanced Simple@L5
    Format settings, BVOP : 1
    Format settings, QPel : No
    Format settings, GMC : No warppoints
    Format settings, Matrix : Custom
    Codec ID : XVID
    Codec ID/Hint : XviD
    Duration : 1h 27mn
    Bit rate : 1 996 Kbps
    Width : 720 pixels
    Height : 384 pixels
    Display aspect ratio : 1.85:1
    Frame rate : 23.976 (23976/1000) fps
    Color space : YUV
    Chroma subsampling : 4:2:0
    Bit depth : 8 bits
    Scan type : Progressive
    Compression mode : Lossy
    Bits/(Pixel*Frame) : 0.301
    Stream size : 1.21 GiB (84%)
    Writing library : XviD 73
    ID : 1
    Format : AC-3
    Format/Info : Audio Coding 3
    Mode extension : CM (complete main)
    Format settings, Endianness : Big
    Codec ID : 2000
    Duration : 1h 26mn
    Bit rate mode : Constant
    Bit rate : 384 Kbps
    Channel(s) : 6 channels
    Channel positions : Front: L C R, Side: L R, LFE
    Sampling rate : 48.0 KHz
    Frame rate : 31.250 fps (1536 spf)
    Compression mode : Lossy
    Stream size : 239 MiB (16%)
    Alignment : Split accross interleaves
    Interleave, duration : 42 ms (1.00 video frame)
    Interleave, preload duratio : 500 ms

    Скриншот c названием фильма


    Download .torrent

    Download free and at maximum speed!

    How to Download? · What is a torrent? · Ratings and Limitations

    The site does not extend and does not store electronic(digital) versions of products, and only gives access to a reference catalogue created by users on torrent-files which contain only lists of the hash-sums, the earnest entreaty, with complaints(abuse) to access directly to the user. Files for an exchange on tracker are given by users of a site, and the administration does not bear the responsibility for their maintenance. The request to not fill in the files protected by copyrights, and also files of the illegal maintenance!

    [Profile] [PM]
    Display posts from previous:    
    Reply to topic

    The time now is: Today 21:29

    All times are GMT + 3 Hours

    You cannot post new topics in this forum
    You cannot reply to topics in this forum
    You cannot edit your posts in this forum
    You cannot delete your posts in this forum
    You cannot vote in polls in this forum
    You cannot attach files in this forum
    You cannot download files in this forum