BitTorrentTracker PerecTracker.org
BitTorrentTracker PerecTracker.org
    
Регистрация  ·  Вход
 
 · 
Забыли пароль?

  • Виктор Франкенштейн / Victor Frankenstein (Пол МакГиган / Paul McGuigan) [2015, США, фантастика, триллер, драма, BDRip] Dub + Original Eng + Subs

    Ответить на тему
     
    Автор Сообщение

    rechyn

    Создавать темы 03-Мар-2016 01:00

           

    [Цитировать]

    Виктор Франкенштейн / Victor Frankenstein
    «Монстр создал монстра»
    -Страна: США / 20th Century Fox Film Corporation, Davis Entertainment...
    Жанр: фантастика, триллер, драма
    Год выпуска: 2015
    Продолжительность: 01:49:50
    Перевод: Профессиональный (дублированный) лицензия iTunes
    Cубтитры: русские (forced+full) + английские (full+full SDH) внешние
    Оригинальная аудиодорожка: английский
    Режиссёр: Пол МакГиган / Paul McGuigan
    В ролях: Дэниэл Рэдклифф, Джеймс МакЭвой, Джессика Браун-Финдли, Бронсон Уэбб, Дэниэл Мейс, Спенсер Уидлинг, Робин Пирс, Эндрю Скотт, Каллум Тернер, Ди Ботчер.
    Описание: Новый взгляд на фантастическую историю Виктора Франкенштейна, на этот раз — с точки зрения его помощника Игоря.-Рейтинг
    imdb.com: 6.10 (11 788)
    kinopoisk.ru: 6.268 (18 342)
    MPAA: - детям до 13 лет просмотр не желателен-Сэмпл: http://multi-up.com/1091496-Качество видео: BDRip [VICTOR_FRANKENSTEIN_REMUX_HDCLUB]
    Формат видео: AVI
    Видео: XviD build 66, 720x304 (2.37:1), 23.976 fps, ~2056 kbps avg, 0.392 bit/pixel
    Аудио 1: 48 kHz, AC3 Dolby Digital, 3/2 (L,C,R,l,r) + LFE ch, ~384 kbps avg (RUS)
    Аудио 2: 48 kHz, AC3 Dolby Digital, 3/2 (L,C,R,l,r) + LFE ch, ~384 kbps avg (ENG)
    Формат субтитров: softsub (SRT)
    -

    MediaInfo

    Общее
    Полное имя : D:\Victor.Frankenstein.2015.DUAL.BDRip.2,18Gb.XviD.AC3\Victor.Frankenstein.2015.DUAL.BDRip.2,18Gb.XviD.AC3.avi
    Формат : AVI
    Формат/Информация : Audio Video Interleave
    Профиль формата : OpenDML
    Размер файла : 2,18 Гбайт
    Продолжительность : 1 ч. 49 м.
    Общий поток : 2841 Кбит/сек
    Название фильма : Victor Frankenstein 2015
    Режиссёр : Paul McGuigan
    Дата записи : 01.03.2016
    Программа кодирования : VirtualDubModRus 1.5.10.2 (build 2542/release)
    Библиотека кодирования : VirtualDubMod build 2542/release
    Правообладатель : Rutracker.org
    Примечание : BDRip by MooN_WalkeR
    Видео
    Идентификатор : 0
    Формат : MPEG-4 Visual
    Профиль формата : Advanced Simple@L5
    Параметр BVOP формата : 1
    Параметр QPel формата : Нет
    Параметр GMC формата : Без точки перехода
    Параметр матрицы формата : Выборочная
    Идентификатор кодека : XVID
    Идентификатор кодека/Подсказка : XviD
    Продолжительность : 1 ч. 49 м.
    Битрейт : 2056 Кбит/сек
    Ширина : 720 пикселей
    Высота : 304 пикселя
    Соотношение сторон : 2,35:1
    Частота кадров : 23,976 кадра/сек
    Цветовое пространство : YUV
    Субдискретизация насыщенности : 4:2:0
    Битовая глубина : 8 бит
    Тип развёртки : Прогрессивная
    Метод сжатия : С потерями
    Бит/(Пиксели*Кадры) : 0.392
    Размер потока : 1,58 Гбайт (72%)
    Библиотека кодирования : XviD 66
    Аудио #1
    Идентификатор : 1
    Формат : AC-3
    Формат/Информация : Audio Coding 3
    Расширение режима : CM (complete main)
    Параметр Endianness формата : Big
    Идентификатор кодека : 2000
    Продолжительность : 1 ч. 49 м.
    Вид битрейта : Постоянный
    Битрейт : 384 Кбит/сек
    Каналы : 6 каналов
    Расположение каналов : Front: L C R, Side: L R, LFE
    Частота : 48,0 КГц
    Битовая глубина : 16 бит
    Метод сжатия : С потерями
    Размер потока : 302 Мбайт (14%)
    Выравнивание : Разделение по промежуткам
    Продолжительность промежутка : 42 мс. (1,00 видеокадр)
    Время предзагрузки промежутка : 500 мс.
    Заголовок : RUS
    Аудио #2
    Идентификатор : 2
    Формат : AC-3
    Формат/Информация : Audio Coding 3
    Расширение режима : CM (complete main)
    Параметр Endianness формата : Big
    Идентификатор кодека : 2000
    Продолжительность : 1 ч. 49 м.
    Вид битрейта : Постоянный
    Битрейт : 384 Кбит/сек
    Каналы : 6 каналов
    Расположение каналов : Front: L C R, Side: L R, LFE
    Частота : 48,0 КГц
    Битовая глубина : 16 бит
    Метод сжатия : С потерями
    Размер потока : 302 Мбайт (14%)
    Выравнивание : Разделение по промежуткам
    Продолжительность промежутка : 42 мс. (1,00 видеокадр)
    Время предзагрузки промежутка : 500 мс.
    Заголовок : ENG

    Скриншоты


    Скачать .torrent

    Скачать торрент-файл бесплатно и на максимальной скорости!

    Как скачивать? · Что такое торрент? · Рейтинг и ограничения

    !ВНИМАНИЕ!
    Сайт не распространяет и не хранит электронные версии произведений, а занимается лишь лишь предоставлением доступа к создаваемому пользователями каталогу ссылок на торрент-файлы, которые содержат только списки хеш-сумм, убедительная просьба с жалобами обращаться напрямую к пользователю. Файлы для обмена на трекере предоставлены пользователями сайта, и администрация не несёт ответственности за их содержание. Просьба не заливать файлы, защищенные авторскими правами, а также файлы нелегального содержания!


    _________________
    [Профиль] [ЛС]
    Показать сообщения:    
    Ответить на тему

    Текущее время: Сегодня, в 23:54

    Часовой пояс: GMT + 2



    Вы не можете начинать темы
    Вы не можете отвечать на сообщения
    Вы не можете редактировать свои сообщения
    Вы не можете удалять свои сообщения
    Вы не можете голосовать в опросах
    Вы не можете прикреплять файлы к сообщениям
    Вы не можете скачивать файлы