BitTorrentTracker PerecTracker.org
BitTorrentTracker PerecTracker.org
    
Регистрация  ·  Вход
 
 · 
Забыли пароль?

  • Новогодний отрыв / Incidencias (Хуан Крус / Juan Cruz) [2015, Испания, Комедия, WEB-DLRip] Dub (iTunes)

    Ответить на тему
     
    Автор Сообщение

    rechyn

    Создавать темы 02-Мар-2016 20:48

           

    [Цитировать]

    -Новогодний отрыв / Incidencias--Страна: Испания
    Жанр: Комедия
    Год выпуска: 2015
    Продолжительность: 01:26:34-Перевод: Профессиональный (дублированный) iTunes-Cубтитры: нет
    Оригинальная аудиодорожка: нет-Режиссер: Хуан Крус / Juan Cruz-В ролях: Росси де Пальма, Лола Дуэньяс, Карлос Аресес, Иманоль Ариас, Аида Фольч, Рубен Очандиано, Нурия Гаго, Роберто Аламо, Эрнесто Альтерио-Описание: В канун нового года пассажирский поезд терпит аварию и застревает на пустынном участке. Время неумолимо движется к полуночи, а помощи все нет. Пассажиры теряют последнюю надежду встретить праздник в кругу своих близких. Уныние сменяется отчаянием и подозрительностью. Всем начинает казаться, что один из путешественников — опасный преступник, вынашивающий кошмарные планы…---Качество видео: WEB-DLRip
    Формат видео: AVI-Видео: XviD, 720x304 (2.35:1), 23.976 fps, ~2000 kbps avg, 0.38 bit/pixel
    Аудио: 48 kHz, AC3 Dolby Digital, 3/2 (L,C,R,l,r) + LFE ch, ~384 kbps avg-

    MediaInfo

    Complete name : D:\РАЗДАЧИ\Incidencias (2015) WEB-DLRip.avi
    Format : AVI
    Format/Info : Audio Video Interleave
    File size : 1.45 GiB
    Duration : 1h 26mn
    Overall bit rate : 2 406 Kbps
    Writing application : VirtualDubMod 1.5.10.2 (build 2540/release)
    Writing library : VirtualDubMod build 2540/release
    Video
    ID : 0
    Format : MPEG-4 Visual
    Format profile : Advanced Simple@L5
    Format settings, BVOP : 1
    Format settings, QPel : No
    Format settings, GMC : No warppoints
    Format settings, Matrix : Custom
    Codec ID : XVID
    Codec ID/Hint : XviD
    Duration : 1h 26mn
    Bit rate : 2 013 Kbps
    Width : 720 pixels
    Height : 304 pixels
    Display aspect ratio : 2.35:1
    Frame rate : 24.000 fps
    Color space : YUV
    Chroma subsampling : 4:2:0
    Bit depth : 8 bits
    Scan type : Progressive
    Compression mode : Lossy
    Bits/(Pixel*Frame) : 0.383
    Stream size : 1.22 GiB (84%)
    Writing library : XviD 73
    Audio
    ID : 1
    Format : AC-3
    Format/Info : Audio Coding 3
    Mode extension : CM (complete main)
    Format settings, Endianness : Big
    Codec ID : 2000
    Duration : 1h 26mn
    Bit rate mode : Constant
    Bit rate : 384 Kbps
    Channel(s) : 6 channels
    Channel positions : Front: L C R, Side: L R, LFE
    Sampling rate : 48.0 KHz
    Frame rate : 31.250 fps (1536 spf)
    Compression mode : Lossy
    Stream size : 238 MiB (16%)
    Alignment : Split accross interleaves
    Interleave, duration : 42 ms (1.00 video frame)
    Interleave, preload duratio : 500 ms

    Скриншот c названием фильма

    Скриншоты

    Скачать .torrent

    Скачать торрент-файл бесплатно и на максимальной скорости!

    Как скачивать? · Что такое торрент? · Рейтинг и ограничения

    !ВНИМАНИЕ!
    Сайт не распространяет и не хранит электронные версии произведений, а занимается лишь лишь предоставлением доступа к создаваемому пользователями каталогу ссылок на торрент-файлы, которые содержат только списки хеш-сумм, убедительная просьба с жалобами обращаться напрямую к пользователю. Файлы для обмена на трекере предоставлены пользователями сайта, и администрация не несёт ответственности за их содержание. Просьба не заливать файлы, защищенные авторскими правами, а также файлы нелегального содержания!


    _________________
    [Профиль] [ЛС]
    Показать сообщения:    
    Ответить на тему

    Текущее время: Сегодня, в 22:31

    Часовой пояс: GMT + 2



    Вы не можете начинать темы
    Вы не можете отвечать на сообщения
    Вы не можете редактировать свои сообщения
    Вы не можете удалять свои сообщения
    Вы не можете голосовать в опросах
    Вы не можете прикреплять файлы к сообщениям
    Вы не можете скачивать файлы