BitTorrentTracker PerecTracker.org
BitTorrentTracker PerecTracker.org
    
Регистрация  ·  Вход
 
 · 
Забыли пароль?

  • Грэвити Фоллс / Gravity Falls / Сезон: 2 / Серии: 20 из 20 (Джон Аошима, Джо Питт, Аарон Спринджер) [2014, Мультсериал, комедия, мистика, приключения, WEB-DLRip] DUB

    Ответить на тему
     
    Автор Сообщение

    rechyn

    Создавать темы 02-Мар-2016 20:28

           

    [Цитировать]

    Грэвити Фоллс / Gravity Falls
    Страна: США
    Жанр: Мультсериал, комедия, мистика, приключения
    Продолжительность: ~21 минута
    Год выпуска: 2014
    Перевод: Профессиональный (дублированный) Студия "Кириллица" (По заказу канала Disney)
    Русские субтитры: нет
    Режиссёр: Джон Аошима, Джо Питт, Аарон Спринджер
    Роли озвучивали: Наталья Терешкова, Антон Колесников, Владимир Герасимов, Ольга Шорохова, Денис Некрасов
    Описание: История рассказывает о приключениях близнецов, брата и сестры Диппера и Мэйбл Пайнс. Их планы на лето рушатся, когда родители отправляют их к дальнему родственнику в тихий городок Gravity Falls, который живет в загадочной хижине. Здесь всегда много туристов, которых привлекает самый странный музей в мире, но близнецы подозревают, что там творится что-то неладное и они должны полагаться друг на друга чтобы разгадать тайны маленького городка.

    Семпл: http://multi-up.com/1028870
    Качество: WEB-DLRip
    Формат: AVI
    Видео: Xvid 720x400 23.98fps 1 531 Kbps
    Аудио: Dolby AC3 48000Hz stereo 192kbps

    Подробные технические данные

    Format                           : AVI
    Format/Info : Audio Video Interleave
    File size : 280 MiB
    Duration : 22mn 36s
    Overall bit rate : 1 733 Kbps
    Writing application : VirtualDubModRus 1.5.10.2 (build 2542/release)
    Writing library : VirtualDubMod build 2542/release
    Video
    ID : 0
    Format : MPEG-4 Visual
    Format profile : Advanced Simple@L5
    Format settings, BVOP : No
    Format settings, QPel : No
    Format settings, GMC : No warppoints
    Format settings, Matrix : Default (H.263)
    Codec ID : XVID
    Codec ID/Hint : XviD
    Duration : 22mn 36s
    Bit rate : 1 531 Kbps
    Width : 720 pixels
    Height : 400 pixels
    Display aspect ratio : 16:9
    Frame rate : 23.976 fps
    Resolution : 8 bits
    Colorimetry : 4:2:0
    Scan type : Progressive
    Bits/(Pixel*Frame) : 0.222
    Stream size : 248 MiB (88%)
    Writing library : XviD 1.2.1 (UTC 2008-12-04)
    Audio
    ID : 1
    Format : AC-3
    Format/Info : Audio Coding 3
    Codec ID : 2000
    Duration : 22mn 36s
    Bit rate mode : Constant
    Bit rate : 192 Kbps
    Channel(s) : 2 channels
    Channel positions : L R
    Sampling rate : 48.0 KHz
    Stream size : 31.1 MiB (11%)
    Alignment : Split accross interleaves
    Interleave, duration : 42 ms (1.00 video frame)
    Interleave, preload duration : 500 ms
    Language : Russian

    Скриншоты

    Внимание! Раздача ведётся путём добавления новых серий

    Внимание! Раздача ведётся путём добавления новых серий; при каждом добавлении создётся новый торрент. Чтобы начать докачку новой серии, пользователям необходимо сделать следующее:
    (1) остановить скачивание,
    (2) удалить старый торрент у себя из клиента (старые серии удалять не надо),
    (3) скачать новый торрент и запустить его у себя в клиенте вместо старого, при этом указать клиенту путь в старую папку куда и должно происходить скачивание новых серий.
    Ваш клиент при этом должен произвести хеширование (проверку) старой папки (если не производит сам - помогите ему сделать это), и будет докачивать только те серии которых у вас ещё нет. Старые серии при этом не удаляются, а продолжают раздаваться!
    Eсли вы уже удалили старые серии, то предотвратить повторную закачку старых серий можно, отжав галочку в соответсвующих местах при запуске нового торрента. По возможности, желательно не удалять старые серии как можно дольше чтобы релизёр не столько продолжал раздавать старые серии, а смог сконцентрироваться на новых.

    Список серий

    01. Scary-Oke / Кошмараоке
    02. Into the Bunker / Бункер
    03. The Golf-War / Гольф и война

    04. Sock Opera / Носок-опера
    05. Soos and The Real Girl / Девушка Зуса
    06.Little Gift Shop of Horrors / Маленькая сувенирная лавочка ужасов
    07. Society of the Blind Eye / Тайное общество слепой глаз
    08. Blendin's Game / Игра Блендина
    09. The Love God / Бог Любви

    10. Northwest Mansion Mystery / Тайна Особняка Нортвест
    11. Not What He Seems / Не тот, кем кажется
    12. A Tale of Two Stans / История о Двух Стэнах
    13. Dungeons, Dungeons, and More Dungeons / Подземелья, подземелья и ещё раз подземелья

    14. The Stanchurian Candidate / Кандидат от Стэнчжурии
    15. The Last Mabelcorn / Последний Мэйблрог
    16. Roadside Attraction / Придорожный Аттракцион
    17. Dipper and Mabel vs. the Future / Диппер и Мэйбл против Будущего
    18. Weirdmageddon. Part 1 / Странногеддон. Часть 1
    19. Weirdmageddon. Part 2: Escape From Reality / Странногеддон. Часть 2: Побег из реальности

    20. Weirdmageddon. Part 3: Take Back The Falls / Странногеддон. Часть 3: Последняя война
    Скачать .torrent

    Скачать торрент-файл бесплатно и на максимальной скорости!

    Как скачивать? · Что такое торрент? · Рейтинг и ограничения

    !ВНИМАНИЕ!
    Сайт не распространяет и не хранит электронные версии произведений, а занимается лишь лишь предоставлением доступа к создаваемому пользователями каталогу ссылок на торрент-файлы, которые содержат только списки хеш-сумм, убедительная просьба с жалобами обращаться напрямую к пользователю. Файлы для обмена на трекере предоставлены пользователями сайта, и администрация не несёт ответственности за их содержание. Просьба не заливать файлы, защищенные авторскими правами, а также файлы нелегального содержания!


    _________________
    [Профиль] [ЛС]
    Показать сообщения:    
    Ответить на тему

    Текущее время: Сегодня, в 11:53

    Часовой пояс: GMT + 2



    Вы не можете начинать темы
    Вы не можете отвечать на сообщения
    Вы не можете редактировать свои сообщения
    Вы не можете удалять свои сообщения
    Вы не можете голосовать в опросах
    Вы не можете прикреплять файлы к сообщениям
    Вы не можете скачивать файлы