BitTorrentTracker PerecTracker.org
BitTorrentTracker PerecTracker.org
    
Регистрация  ·  Вход
 
 · 
Забыли пароль?

  • Репортаж (Владимир Балкашинов) [1995, приключения, комедия, мелодрама, DVDRip]

    Ответить на тему
     
    Автор Сообщение

    rechyn

    Создавать темы 02-Мар-2016 12:24

           

    [Цитировать]

    РепортажЖанр: приключения, комедия, мелодрама
    Год выпуска: 1995
    Продолжительность: 01:28:29
    Режиссёр: Владимир Балкашинов
    В ролях: Марина Могилевская, Игорь Бочкин, Владимир Балкашинов, Давид Бабаев, Станислав Боклан, Анатолий Равикович, Ирина Кривошеева, Имидулла, Денис Карасёв, Алим Галеев, Борис Небиеридзе, Виктор Андриенко, Александр Арутюнян, Зоя Балкашинова, Алексей Богданович, Николай Боклан, Виталий Борисюк, Александр Вилков, Юлия Волчкова, Вячеслав Воронин, Людмила Герасименко, Татьяна Кривицкая, Александр Кущ, Анна Левченко, Людмила Лобза, Ирина Мазур, Станислав Молганов, Алексей Майстренко, Георгий Поволоцкий, Наталия Полищук, Светлана Прус, Юрий Рудченко, Виктор Сарайкин, Виктория Соколова, Борис Харитонов, Елена Хижная, Павел Мирзоев, Марк Винокуров
    Описание: Американская журналистка узнает о «вакцине любви», синтезированной румынским доктором Пештеряну. В поисках героине помогает бывший десантник, в недалеком прошлом преуспевающий бизнесмен, а ныне пьяница Павел.
    Доп. информация:

    Рип: waarheid
    Сэмпл:

    Качество видео: DVDRip [Исходник: DVD5]
    Формат видео: AVI
    Видео: 704x528 (1.33:1), 25 fps, XviD build 73 ~1898 kbps avg, 0.20 bit/pixel
    Аудио: 48 kHz, AC3 Dolby Digital, 3/2 (L,C,R,l,r) + LFE ch, ~448 kbps

    MediaInfo

    Общее
    Полное имя : Z:\Репортаж.1995_DVDRip_by_waarheid.avi
    Формат : AVI
    Формат/Информация : Audio Video Interleave
    Размер файла : 1,46 Гбайт
    Продолжительность : 1 ч. 28 м.
    Общий поток : 2356 Кбит/сек
    Программа кодирования : VirtualDubMod 1.5.10.3 | www.virtualdub-fr.org || (build 2550/release)
    Видео
    Идентификатор : 0
    Формат : MPEG-4 Visual
    Профиль формата : Advanced Simple@L5
    Параметр BVOP формата : 1
    Параметр QPel формата : Нет
    Параметр GMC формата : Без точки перехода
    Параметр матрицы формата : Выборочная
    Идентификатор кодека : XVID
    Идентификатор кодека/Подсказка : XviD
    Продолжительность : 1 ч. 28 м.
    Битрейт : 1899 Кбит/сек
    Ширина : 704 пикселя
    Высота : 528 пикселей
    Соотношение сторон : 4:3
    Частота кадров : 25,000 кадров/сек
    Цветовое пространство : YUV
    Субдискретизация насыщенности : 4:2:0
    Битовая глубина : 8 бит
    Тип развёртки : Прогрессивная
    Метод сжатия : С потерями
    Бит/(Пиксели*Кадры) : 0.204
    Размер потока : 1,17 Гбайт (81%)
    Библиотека кодирования : XviD 73
    Аудио
    Идентификатор : 1
    Формат : AC-3
    Формат/Информация : Audio Coding 3
    Расширение режима : CM (complete main)
    Параметр Endianness формата : Big
    Идентификатор кодека : 2000
    Продолжительность : 1 ч. 28 м.
    Вид битрейта : Постоянный
    Битрейт : 448 Кбит/сек
    Каналы : 6 каналов
    Расположение каналов : Front: L C R, Side: L R, LFE
    Частота : 48,0 КГц
    Частота кадров : 31,250 кадров/сек (1536 spf)
    Метод сжатия : С потерями
    Размер потока : 283 Мбайт (19%)
    Выравнивание : Разделение по промежуткам
    Продолжительность промежутка : 40 мс. (1,00 видеокадр)
    Время предзагрузки промежутка : 500 мс.

    Скриншот c названием фильма

    Скриншоты

    Скачать .torrent

    Скачать торрент-файл бесплатно и на максимальной скорости!

    Как скачивать? · Что такое торрент? · Рейтинг и ограничения

    !ВНИМАНИЕ!
    Сайт не распространяет и не хранит электронные версии произведений, а занимается лишь лишь предоставлением доступа к создаваемому пользователями каталогу ссылок на торрент-файлы, которые содержат только списки хеш-сумм, убедительная просьба с жалобами обращаться напрямую к пользователю. Файлы для обмена на трекере предоставлены пользователями сайта, и администрация не несёт ответственности за их содержание. Просьба не заливать файлы, защищенные авторскими правами, а также файлы нелегального содержания!


    _________________
    [Профиль] [ЛС]
    Показать сообщения:    
    Ответить на тему

    Текущее время: Сегодня, в 08:11

    Часовой пояс: GMT + 2



    Вы не можете начинать темы
    Вы не можете отвечать на сообщения
    Вы не можете редактировать свои сообщения
    Вы не можете удалять свои сообщения
    Вы не можете голосовать в опросах
    Вы не можете прикреплять файлы к сообщениям
    Вы не можете скачивать файлы