BitTorrentTracker PerecTracker.org
BitTorrentTracker PerecTracker.org
    
Регистрация  ·  Вход
 
 · 
Забыли пароль?

  • Ма Ма / Ma ma (Хулио Медем / Julio Medem ) [2015, Испания, Франция , Драма, WEB-DL, HD (720p)] MVO + Original + sub (rus)

    Ответить на тему
     
    Автор Сообщение

    Flirldrerve

    Создавать темы 02-Мар-2016 04:12

           

    [Цитировать]

    Ма Ма / Ma ma
    -
    7.033 / 10 5.80 / 10
    -Год выпуска: 2015
    Страна: Испания, Франция
    Жанр: Драма
    Продолжительность: 02:02:21
    Перевод: Многоголосый закадровый (Мельница)
    Оригинальная аудиодорожка: Есть
    Cубтитры: Русские
    Режиссёр: Хулио Медем
    Сценарий: Хулио Медем
    Продюсер: Пенелопа Крус, Хулио Медем, Resana Aleski
    Оператор: Кико Де Ла Рика
    Композитор: Эдуардо Крус, Альберто Иглесиас
    Художник: Монце Санс, Карлос Диас
    Монтаж: Иван Аледо, Хулио Медем, Яго Муньис
    В ролях: Сильвия Абаскаль, Алекс Брендемюль, Елена Карранса, Пенелопа Крус, Николас Де Висенте, Асьер Эчеандиа, Анна Хименес, Хавьер Мартос, Анабель Маурин, Мигель Мота
    Сборы в России: $27 087
    Мировая премьера: 11 сентября 2015
    Премьера (РФ): 3 декабря 2015, «A-One Films»
    Описание: Двое мужчин, одна женщина и один десятилетний ребенок переживают потери и триумфы, спорят о футболе, борются со смертью и до смерти любят друг друга. Магда — талантливая учительница и любящая мама, собирает все силы, чтобы победить болезнь и вернуть себе право жить и быть счастливой.-Качество исходника: WEB-DL 720p (NNMClub)
    Качество: WEB-DL
    Тип: HD (720p)
    Контейнер: M4V
    Видео: H.264, 1280x532, 2.40:1, 3 990 Kbps, 24.000 fps
    Аудио 1: Русский/Многоголосый закадровый , AAC / 2.0 / 149 Kbps / 48.0 KHz
    Аудио 2: Испанский/Оригинальная дорожка , AAC / 2.0 / 156 Kbps / 48.0 KHz
    Аудио 3: Испанский/Оригинальная дорожка , AC-3 / 5.1 / 384 Kbps / 48.0 KHz
    Субтитры: Русские полные
    -

    iTunes Meta Tags

    Sort Name: Ma Ma
    XID: Apple:vendor_id:2015-821465
    contentID: 1064407664
    Copyright: © 2015 MA MA PELÍCULAS A.I.E., MA MA P.C. S.L., MORENA FILMS S.L., MARE NOSTRUM PRODUCTIONS SAS
    Screenwriters: Хулио Медем
    Producers: Пенелопа Крус, Хулио Медем, Resana Aleski
    Director: Хулио Медем
    Cast: Сильвия Абаскаль, Алекс Брендемюль, Елена Карранса, Пенелопа Крус, Николас Де Висенте, Асьер Эчеандиа, Анна Хименес, Хавьер Мартос, Анабель Маурин, Мигель Мота
    Studio: MA MA PELICULAS
    Rating: 0
    Long Description: Двое мужчин, одна женщина и один десятилетний ребенок переживают потери и триумфы, спорят о футболе, борются со смертью и до смерти любят друг друга. Магда - талантливая учительница и любящая мама, собирает все силы, чтобы победить болезнь и вернуть себе право жить и быть счастливой.
    Description: Двое мужчин, одна женщина и один десятилетний ребенок переживают потери и триумфы, спорят о футболе, борются со смертью и до смерти любят друг друга. Магда - талантливая учительница и любящая мама, собирает все силы, чтобы победить болезнь и вернуть себе право жить и быть счастливой.
    Release Date: 2015-09-11T08:00:00Z
    Genre: Drama
    Artist: Julio Medem
    Name: Ma Ma

    MediaInfo

    General
    Complete name : /Users/imac/HandBrake/Ma.ma.720p.WEB-DL.m4v
    Format : MPEG-4
    Codec ID : M4V  (M4V /M4A /mp42/isom)
    File size : 4.01 GiB
    Duration : 2h 2mn
    Overall bit rate mode : Variable
    Overall bit rate : 4 687 Kbps
    Movie name : Ma Ma
    Performer : Julio Medem
    Director : Хулио Медем
    Actor : Сильвия Абаскаль / Алекс Брендемюль / Елена Карранса / Пенелопа Крус / Николас Де Висенте / Асьер Эчеандиа / Анна Хименес / Хавьер Мартос / Анабель Маурин / Мигель Мота
    Screenplay by : Хулио Медем
    Producer : Пенелопа Крус / Хулио Медем / Resana Aleski
    Production studio : MA MA PELICULAS
    Genre : Drama
    ContentType : Short Film
    Description : Двое мужчин, одна женщина и один десятилетний ребенок переживают потери и триумфы, спорят о футболе, борются со смертью и до смерти любят друг друга. Магда - талантливая учительница и любящая мама, собирает все силы, чтобы победить болезнь и вернуть себе право жить и быть счастливой.
    Recorded date : UTC 2015-09-11 08:00:00
    Encoded date : UTC 2016-03-01 22:40:19
    Tagged date : UTC 2016-03-01 22:41:52
    Copyright : © 2015 MA MA PELÍCULAS A.I.E., MA MA P.C. S.L., MORENA FILMS S.L., MARE NOSTRUM PRODUCTIONS SAS
    Cover : Yes
    Rating : None
    Title/Sort : Ma Ma
    LongDescription : Двое мужчин, одна женщина и один десятилетний ребенок переживают потери и триумфы, спорят о футболе, борются со смертью и до смерти любят друг друга. Магда - талантливая учительница и любящая мама, собирает все силы, чтобы победить болезнь и вернуть себе право жить и быть счастливой.
    HDVideo : Yes
    AppleStoreCatalogID : 1064407664
    Vendor : Apple:vendor_id:2015-821465
    ContentRating : mpaa|Unrated|???|
    Video #1
    ID : 1
    Format : AVC
    Format/Info : Advanced Video Codec
    Format profile : Main@L3.1
    Format settings, CABAC : No
    Format settings, ReFrames : 2 frames
    Format settings, GOP : M=2, N=90
    Codec ID : avc1
    Codec ID/Info : Advanced Video Coding
    Duration : 2h 2mn
    Bit rate : 3 990 Kbps
    Width : 1 280 pixels
    Height : 532 pixels
    Display aspect ratio : 2.40:1
    Frame rate mode : Variable
    Frame rate : 24.000 fps
    Minimum frame rate : 23.810 fps
    Maximum frame rate : 24.390 fps
    Color space : YUV
    Chroma subsampling : 4:2:0
    Bit depth : 8 bits
    Scan type : Progressive
    Bits/(Pixel*Frame) : 0.244
    Stream size : 3.41 GiB (85%)
    Title : Main Program
    Language : Spanish
    Encoded date : UTC 2016-03-01 22:40:19
    Tagged date : UTC 2016-03-01 22:41:18
    Color range : Limited
    Color primaries : BT.709
    Transfer characteristics : BT.709
    Matrix coefficients : BT.709
    Menus : 6,7
    Video #2
    ID : 7
    Format : JPEG
    Codec ID : jpeg
    Duration : 2h 2mn
    Bit rate mode : Variable
    Bit rate : 196 bps
    Width : 640 pixels
    Height : 266 pixels
    Display aspect ratio : 2.40:1
    Frame rate mode : Variable
    Frame rate : 0.001 fps
    Minimum frame rate : 0.000 fps
    Maximum frame rate : 0.005 fps
    Color space : YUV
    Chroma subsampling : 4:2:0
    Bit depth : 8 bits
    Compression mode : Lossy
    Bits/(Pixel*Frame) : 1.151
    Stream size : 95.9 KiB (0%)
    Title : Chapter Images
    Language : Spanish
    Default : No
    Encoded date : UTC 2016-03-01 22:41:20
    Tagged date : UTC 2016-03-01 22:41:20
    Menu For : 1
    Audio #1
    ID : 2
    Format : AAC
    Format/Info : Advanced Audio Codec
    Format profile : LC
    Codec ID : 40
    Duration : 2h 2mn
    Bit rate mode : Variable
    Bit rate : 149 Kbps
    Maximum bit rate : 231 Kbps
    Channel(s) : 2 channels
    Channel positions : Front: L R
    Sampling rate : 48.0 KHz
    Frame rate : 46.875 fps (1024 spf)
    Compression mode : Lossy
    Stream size : 130 MiB (3%)
    Title : Russian Stereo
    Language : Russian
    Default : Yes
    Alternate group : 1
    Encoded date : UTC 2016-03-01 22:40:19
    Tagged date : UTC 2016-03-01 22:40:25
    Audio #2
    ID : 3
    Format : AAC
    Format/Info : Advanced Audio Codec
    Format profile : LC
    Codec ID : 40
    Duration : 2h 2mn
    Bit rate mode : Variable
    Bit rate : 156 Kbps
    Maximum bit rate : 262 Kbps
    Channel(s) : 2 channels
    Channel positions : Front: L R
    Sampling rate : 48.0 KHz
    Frame rate : 46.875 fps (1024 spf)
    Compression mode : Lossy
    Stream size : 137 MiB (3%)
    Title : Spanish Stereo
    Language : Spanish
    Default : No
    Alternate group : 1
    Encoded date : UTC 2016-03-01 22:40:19
    Tagged date : UTC 2016-03-01 22:40:25
    Fallback From : 4
    Audio #3
    ID : 4
    Format : AC-3
    Format/Info : Audio Coding 3
    Mode extension : CM (complete main)
    Format settings, Endianness : Big
    Codec ID : ac-3
    Duration : 2h 2mn
    Bit rate mode : Constant
    Bit rate : 384 Kbps
    Channel(s) : 6 channels
    Channel positions : Front: L C R, Side: L R, LFE
    Sampling rate : 48.0 KHz
    Frame rate : 31.250 fps (1536 spf)
    Bit depth : 16 bits
    Compression mode : Lossy
    Stream size : 336 MiB (8%)
    Title : Spanish DD 5.1
    Language : Spanish
    Default : No
    Alternate group : 1
    Encoded date : UTC 2016-03-01 22:40:19
    Tagged date : UTC 2016-03-01 22:41:18
    Fallback To : 3
    Text
    ID : 5
    Format : Timed Text
    Muxing mode : sbtl
    Codec ID : tx3g
    Duration : 1h 59mn
    Bit rate mode : Variable
    Bit rate : 82 bps
    Stream size : 71.3 KiB (0%)
    Title : Russian iTunes
    Language : Russian
    Default : Yes
    Forced : No
    Alternate group : 2
    Encoded date : UTC 2016-03-01 22:40:19
    Tagged date : UTC 2016-03-01 22:41:18
    Menu #1
    00:00:00.000 : 1
    00:37:41.000 : 2
    01:20:29.000 : 3
    01:59:16.000 : 4
    Menu #2
    ID : 6
    Codec ID : text
    Duration : 2h 2mn
    Language : Spanish
    Encoded date : UTC 2016-03-01 22:41:18
    Tagged date : UTC 2016-03-01 22:41:18
    Bit rate mode : CBR
    Menu For : 1
    00:00:00.000 : 1
    00:37:41.000 : 2
    01:20:29.000 : 3
    01:59:16.000 : 4

    Скриншоты

    -

    Релиз подготовлен для просмотра на Apple TV, iPad, iPhone, iPod Touch.
    Для просмотра данного релиза на компьютере с ОС Windows рекомендуется использовать VLC media player
    Скачать .torrent

    Скачать торрент-файл бесплатно и на максимальной скорости!

    Как скачивать? · Что такое торрент? · Рейтинг и ограничения

    !ВНИМАНИЕ!
    Сайт не распространяет и не хранит электронные версии произведений, а занимается лишь лишь предоставлением доступа к создаваемому пользователями каталогу ссылок на торрент-файлы, которые содержат только списки хеш-сумм, убедительная просьба с жалобами обращаться напрямую к пользователю. Файлы для обмена на трекере предоставлены пользователями сайта, и администрация не несёт ответственности за их содержание. Просьба не заливать файлы, защищенные авторскими правами, а также файлы нелегального содержания!


    _________________
    [Профиль] [ЛС]
    Показать сообщения:    
    Ответить на тему

    Текущее время: Сегодня, в 12:02

    Часовой пояс: GMT + 2



    Вы не можете начинать темы
    Вы не можете отвечать на сообщения
    Вы не можете редактировать свои сообщения
    Вы не можете удалять свои сообщения
    Вы не можете голосовать в опросах
    Вы не можете прикреплять файлы к сообщениям
    Вы не можете скачивать файлы