BitTorrentTracker PerecTracker.org
BitTorrentTracker PerecTracker.org
    
Регистрация  ·  Вход
 
 · 
Забыли пароль?

  • Придорожное заведение / Red Rock West (Джон Дал / John Dahl) [1993, США, триллер, драма, криминал, BDRip 1080p] 2x MVO (Пифагор, Варус Видео) + DVO (НТВ+) + 2x AVO (Живов, Кузнецов) + Ukr + Original Eng + Sub (Rus, Eng, Ukr Forced)

    Ответить на тему
     
    Автор Сообщение

    Flirldrerve

    Создавать темы 02-Мар-2016 04:12

           

    [Цитировать]

    Придорожное заведение / Red Rock West-Год выпуска: 1993
    Выпущено: США
    Жанр: триллер, драма, криминал
    Продолжительность: 01:38:39
    Перевод: Профессиональный (многоголосый, закадровый) Пифагор
    + Профессиональный (многоголосый, закадровый) Варус Видео
    + Профессиональный (двухголосый, закадровый) НТВ+
    + Авторский одноголосый Ю.Живов
    + Авторский одноголосый С.Кузнецов
    Оригинальная звуковая дорожка: English
    Субтитры: Russian, Ukrainian (forced), English-Режиссер: Джон Дал / John Dahl
    В ролях: Николас Кейдж, Деннис Хоппер, Дж.Т. Уолш, Лара Флинн Бойл, Тимоти Кархарт, Дэн Шор, Дуайт Йоакам, Крэйг Рей, Вэнс Джонсон, Роберт Эпел
    О фильме: Майкл - бывший морской пехотинец. В его карманах пусто, а единственный шанс найти работу - заехать в придорожный бар Red rock west. В это самое утро местный шериф Уэйн, на самом деле беглый преступник, укравший вместе с женой Сьюзан полмиллиона долларов и разыскиваемый ФБР, поджидает прибытия наемного убийцы из Техаса, нанятого для устранения жены.
    Увидев Техасские номера машины Майкла, Уэйн решает, что дождался киллера и вручает Майклу $ 5000 аванса за предстоящую работу. Майкл устремляется к Сьюзан, чтобы предупредить ее и скрыться с наличными. Но к его удивлению Сьюзан удваивает сумму, чтобы он убил Уэйна. Майкл соглашается, но чувствует, что пора смываться. А тем временем к городку подъезжает настоящий наемный убийца Лайл...
    VietHD!
    Релиз:
    Источник: Придорожное заведение / Red Rock West (1993) 1080p BD-Remux - Spiellberg
    Тип релиза: BDRip 1080p
    Формат: MKV
    Видео: 1920x1080at 23.976 fps, x264@L4.1, ~15379 kbps avg
    Аудио #01: Russian: 48 kHz, AC3, 2/0 (L,R) ch, ~192 kbps avg |Многоголосый закадровый, Пифагор|
    Аудио #02: Russian: 48 kHz, AC3, 2/0 (L,R) ch, ~192 kbps avg |Многоголосый закадровый, Варус Видео|
    Аудио #03: Russian: 48 kHz, AC3, 2/0 (L,R) ch, ~192 kbps avg |Двухголосый закадровый, НТВ+|
    Аудио #04: Russian: 48 kHz/16-bit, FLAC 2.0, ~670 kbps avg |Одноголосый закадровый, Ю.Живов|
    Аудио #05: Russian: 48 kHz, AC3, 2/0 (L,R) ch, ~192 kbps avg |Одноголосый закадровый, С.Кузнецов|
    Аудио #06: Ukrainian: 48 kHz, AC3, 2/0 (L,R) ch, ~192 kbps avg |Многоголосый закадровый, Новый канал|
    Аудио #07: English: 48 kHz/16-bit, FLAC 2.0, ~659 kbps avg
    Семпл-

    Source vs Encode






    -

    mInfo

    Формат : Matroska
    Версия формата : Version 4 / Version 2
    Размер файла : 12,2 Гбайт
    Продолжительность : 1 ч. 38 м.
    Режим общего битрейта : Переменный
    Общий поток : 17,7 Мбит/сек
    Дата кодирования : UTC 2016-02-28 19:26:29
    Программа кодирования : mkvmerge v8.3.0 ('Over the Horizon') 64bit
    Библиотека кодирования : libebml v1.3.1 + libmatroska v1.4.2
    Attachements : cover.jpg
    DURATION : 01:30:17.520000000
    NUMBER_OF_FRAMES : 750
    NUMBER_OF_BYTES : 23944
    _STATISTICS_WRITING_APP : mkvmerge v8.3.0 ('Over the Horizon') 64bit
    _STATISTICS_WRITING_DATE_UTC : 2016-02-28 19:26:29
    _STATISTICS_TAGS : BPS DURATION NUMBER_OF_FRAMES NUMBER_OF_BYTES
    Видео
    Идентификатор : 1
    Формат : AVC
    Формат/Информация : Advanced Video Codec
    Профиль формата : High@L4.1
    Параметр CABAC формата : Да
    Параметр ReFrames формата : 4 кадра
    Идентификатор кодека : V_MPEG4/ISO/AVC
    Продолжительность : 1 ч. 38 м.
    Ширина : 1920 пикселей
    Высота : 1080 пикселей
    Соотношение сторон : 16:9
    Режим частоты кадров : Постоянный
    Частота кадров : 23,976 кадра/сек
    Цветовое пространство : YUV
    Субдискретизация насыщенности : 4:2:0
    Битовая глубина : 8 бит
    Тип развёртки : Прогрессивная
    Библиотека кодирования : x264 core 148 r2665kMod a01e339
    Настройки программы : cabac=1 / ref=4 / deblock=1:-3:-3 / analyse=0x3:0x133 / me=umh / subme=10 / psy=1 / fade_compensate=0.00 / psy_rd=1.05:0.00 / mixed_ref=1 / me_range=24 / chroma_me=1 / trellis=2 / 8x8dct=1 / cqm=0 / deadzone=21,11 / fast_pskip=0 / chroma_qp_offset=-2 / threads=12 / lookahead_threads=2 / sliced_threads=0 / nr=0 / decimate=0 / interlaced=0 / bluray_compat=0 / constrained_intra=0 / fgo=0 / bframes=7 / b_pyramid=2 / b_adapt=2 / b_bias=0 / direct=3 / weightb=1 / open_gop=0 / weightp=2 / keyint=250 / keyint_min=23 / scenecut=40 / intra_refresh=0 / rc_lookahead=60 / rc=crf / mbtree=0 / crf=19.5000 / qcomp=0.65 / qpmin=0 / qpmax=69 / qpstep=4 / vbv_maxrate=62500 / vbv_bufsize=78125 / crf_max=0.0 / nal_hrd=none / filler=0 / ip_ratio=1.30 / pb_ratio=1.20 / aq=3:0.70
    Язык : English
    Default : Да
    Forced : Нет
    Коэффициенты матрицы : BT.709
    colour_range : Limited
    DURATION : 01:38:39.497000000
    NUMBER_OF_FRAMES : 141926
    NUMBER_OF_BYTES : 11368455879
    _STATISTICS_WRITING_APP : mkvmerge v8.3.0 ('Over the Horizon') 64bit
    _STATISTICS_WRITING_DATE_UTC : 2016-02-28 19:26:29
    _STATISTICS_TAGS : BPS DURATION NUMBER_OF_FRAMES NUMBER_OF_BYTES
    Аудио #1
    Идентификатор : 2
    Формат : AC-3
    Формат/Информация : Audio Coding 3
    Расширение режима : CM (complete main)
    Параметр Endianness формата : Big
    Идентификатор кодека : A_AC3
    Продолжительность : 1 ч. 38 м.
    Вид битрейта : Постоянный
    Битрейт : 192 Кбит/сек
    Каналы : 2 канала
    Расположение каналов : Front: L R
    Частота : 48,0 КГц
    Битовая глубина : 16 бит
    Метод сжатия : С потерями
    Размер потока : 135 Мбайт (1%)
    Заголовок : Многоголосый закадровый, Пифагор
    Язык : Russian
    Default : Да
    Forced : Нет
    Аудио #2
    Идентификатор : 3
    Формат : AC-3
    Формат/Информация : Audio Coding 3
    Расширение режима : CM (complete main)
    Параметр Endianness формата : Big
    Идентификатор кодека : A_AC3
    Продолжительность : 1 ч. 38 м.
    Вид битрейта : Постоянный
    Битрейт : 192 Кбит/сек
    Каналы : 2 канала
    Расположение каналов : Front: L R
    Частота : 48,0 КГц
    Битовая глубина : 16 бит
    Метод сжатия : С потерями
    Размер потока : 135 Мбайт (1%)
    Заголовок : Многоголосый закадровый, Варус Видео
    Язык : Russian
    Default : Нет
    Forced : Нет
    Аудио #3
    Идентификатор : 4
    Формат : AC-3
    Формат/Информация : Audio Coding 3
    Расширение режима : CM (complete main)
    Параметр Endianness формата : Big
    Идентификатор кодека : A_AC3
    Продолжительность : 1 ч. 38 м.
    Вид битрейта : Постоянный
    Битрейт : 192 Кбит/сек
    Каналы : 2 канала
    Расположение каналов : Front: L R
    Частота : 48,0 КГц
    Битовая глубина : 16 бит
    Метод сжатия : С потерями
    Размер потока : 135 Мбайт (1%)
    Заголовок : Двухголосый закадровый, НТВ+
    Язык : Russian
    Default : Нет
    Forced : Нет
    Аудио #4
    Идентификатор : 5
    Формат : FLAC
    Формат/Информация : Free Lossless Audio Codec
    Идентификатор кодека : A_FLAC
    Продолжительность : 1 ч. 38 м.
    Вид битрейта : Переменный
    Каналы : 2 канала
    Частота : 48,0 КГц
    Битовая глубина : 16 бит
    Заголовок : Одноголосый закадровый, Ю.Живов
    Библиотека кодирования : libFLAC 1.2.1 (UTC 2007-09-17)
    Язык : Russian
    Default : Нет
    Forced : Нет
    Аудио #5
    Идентификатор : 6
    Формат : AC-3
    Формат/Информация : Audio Coding 3
    Расширение режима : CM (complete main)
    Параметр Endianness формата : Big
    Идентификатор кодека : A_AC3
    Продолжительность : 1 ч. 38 м.
    Вид битрейта : Постоянный
    Битрейт : 192 Кбит/сек
    Каналы : 2 канала
    Расположение каналов : Front: L R
    Частота : 48,0 КГц
    Битовая глубина : 16 бит
    Метод сжатия : С потерями
    Размер потока : 135 Мбайт (1%)
    Заголовок : Одноголосый закадровый, С.Кузнецов
    Язык : Russian
    Default : Нет
    Forced : Нет
    Аудио #6
    Идентификатор : 7
    Формат : AC-3
    Формат/Информация : Audio Coding 3
    Расширение режима : CM (complete main)
    Параметр Endianness формата : Big
    Идентификатор кодека : A_AC3
    Продолжительность : 1 ч. 38 м.
    Вид битрейта : Постоянный
    Битрейт : 192 Кбит/сек
    Каналы : 2 канала
    Расположение каналов : Front: L R
    Частота : 48,0 КГц
    Битовая глубина : 16 бит
    Метод сжатия : С потерями
    Размер потока : 135 Мбайт (1%)
    Заголовок : Многоголосый закадровый, Новый канал
    Язык : Ukrainian
    Default : Нет
    Forced : Нет
    Аудио #7
    Идентификатор : 8
    Формат : FLAC
    Формат/Информация : Free Lossless Audio Codec
    Идентификатор кодека : A_FLAC
    Продолжительность : 1 ч. 38 м.
    Вид битрейта : Переменный
    Каналы : 2 канала
    Частота : 48,0 КГц
    Битовая глубина : 16 бит
    Библиотека кодирования : libFLAC 1.2.1 (UTC 2007-09-17)
    Язык : English
    Default : Нет
    Forced : Нет
    Текст #1
    Идентификатор : 9
    Формат : UTF-8
    Идентификатор кодека : S_TEXT/UTF8
    Идентификатор кодека/Информация : UTF-8 Plain Text
    Язык : Russian
    Default : Нет
    Forced : Нет
    Текст #2
    Идентификатор : 10
    Формат : UTF-8
    Идентификатор кодека : S_TEXT/UTF8
    Идентификатор кодека/Информация : UTF-8 Plain Text
    Заголовок : for
    Язык : Ukrainian
    Default : Нет
    Forced : Нет
    Текст #3
    Идентификатор : 11
    Формат : UTF-8
    Идентификатор кодека : S_TEXT/UTF8
    Идентификатор кодека/Информация : UTF-8 Plain Text
    Язык : English
    Default : Нет
    Forced : Нет
    Меню
    00:00:00.000 : en:00:00:00.000
    00:09:10.548 : en:00:09:10.548
    00:15:48.364 : en:00:15:48.364
    00:24:41.980 : en:00:24:41.980
    00:33:30.090 : en:00:33:30.090
    00:41:34.157 : en:00:41:34.157
    00:50:32.195 : en:00:50:32.195
    00:58:20.121 : en:00:58:20.121
    01:07:46.103 : en:01:07:46.103
    01:17:47.537 : en:01:17:47.537
    01:26:14.793 : en:01:26:14.793
    01:34:31.623 : en:01:34:31.623

    -
    Цитата:
    Цитата:


    * Дорожка №4 получена путем наложения чистого голоса на L,R каналы оригинального DTS-HD MA.
    * За НТВ+ спасибо maksnew. За дорожку Кузнецова с VHS спасибо sasikainen.
    * За украинскую дорожку спасибо трекеру Hurtom. Не хватает около двух минут перевода, имеются украинские субтитры на данный отрезок.
    * В русских субтитрах присутствует ненормативная лексика.
    * Сохранены оригинальные чаптеры как на Blu-ray.
    Скачать .torrent

    Скачать торрент-файл бесплатно и на максимальной скорости!

    Как скачивать? · Что такое торрент? · Рейтинг и ограничения

    !ВНИМАНИЕ!
    Сайт не распространяет и не хранит электронные версии произведений, а занимается лишь лишь предоставлением доступа к создаваемому пользователями каталогу ссылок на торрент-файлы, которые содержат только списки хеш-сумм, убедительная просьба с жалобами обращаться напрямую к пользователю. Файлы для обмена на трекере предоставлены пользователями сайта, и администрация не несёт ответственности за их содержание. Просьба не заливать файлы, защищенные авторскими правами, а также файлы нелегального содержания!


    _________________
    [Профиль] [ЛС]
    Показать сообщения:    
    Ответить на тему

    Текущее время: Сегодня, в 16:24

    Часовой пояс: GMT + 2



    Вы не можете начинать темы
    Вы не можете отвечать на сообщения
    Вы не можете редактировать свои сообщения
    Вы не можете удалять свои сообщения
    Вы не можете голосовать в опросах
    Вы не можете прикреплять файлы к сообщениям
    Вы не можете скачивать файлы