BitTorrentTracker PerecTracker.org
BitTorrentTracker PerecTracker.org
    
Регистрация  ·  Вход
 
 · 
Забыли пароль?

  • Виктор Франкенштейн / Victor Frankenstein (Пол МакГиган / Paul McGuigan) [2015, США, Ужасы, фантастика, драма, BDRip-AVC] Dub + Original + Subs (rus, eng)

    Ответить на тему
     
    Автор Сообщение

    rechyn

    Создавать темы 02-Мар-2016 04:11

           

    [Цитировать]

    Виктор Франкенштейн / Victor Frankenstein«Монстр создал монстра»-Страна: США
    Жанр: ужасы, фантастика, драма
    Год выпуска: 2015
    Продолжительность: 01:49:50
    Перевод: Профессиональный (полное дублирование) (iTunes)
    Оригинальная аудиодорожка: английский
    Cубтитры: русские, английские
    Навигация по главам: есть
    Режиссёр: Пол МакГиган / Paul McGuigan
    В ролях: Дэниэл Рэдклифф, Джессика Браун-Финдлэй, Бронсон Уэбб, Джеймс МакЭвой, Дэниэл Мейс, Спенсер Уидлинг, Робин Пирс, Эндрю Скотт, Каллум Тернер, Ди Ботчер, Ив Понсонби, Уилл Кин, Лу Брили, Николя Слоун, Фредди Фокс, Чарльз Дэнс, Алистэр Петри, Нил Белл, Марк Гейтисс, Гийом Делони
    Описание: Новый взгляд на фантастическую историю Виктора Франкенштейна, на этот раз — с точки зрения его помощника Игоря.

    Качество видео: BDRip-AVC (исходник - Blu-ray|FRANKENSTEIN_BLUEBIRD)
    Формат видео: MKV
    Видео: x264, 1152x480 (2.40:1), 23,976 fps, ~3025 kbps, 0.228 bit/pixel
    Аудио 1: 48 kHz, AC3Dolby Digital, 3/2 (L,C,R,l,r) + LFE ch, ~384 kbps [русский]
    Аудио 2: 48 kHz, AC3 Dolby Digital, 3/2 (L,C,R,l,r) + LFE ch, ~384 kbps [английский]
    Формат субтитров: softsub (SRT)
    MediaInfo | x264 log
    Format : Matroska
    Format version : Version 4 / Version 2
    File size : 2.91 GiB
    Duration : 1h 49mn
    Overall bit rate : 3 794 Kbps
    Movie name : Виктор Франкенштейн / Victor Frankenstein (2015) :: AFM ::
    Encoded date : UTC 2016-03-01 19:44:10
    Writing application : mkvmerge v8.3.0 ('Over the Horizon') 32bit
    Video
    ID : 1
    Format : AVC
    Format/Info : Advanced Video Codec
    Format profile : High@L4.1
    Format settings, CABAC : Yes
    Format settings, ReFrames : 10 frames
    Codec ID : V_MPEG4/ISO/AVC
    Duration : 1h 49mn
    Bit rate : 3 025 Kbps
    Width : 1 152 pixels
    Height : 480 pixels
    Display aspect ratio : 2.40:1
    Frame rate mode : Constant
    Frame rate : 23.976 fps
    Color space : YUV
    Chroma subsampling : 4:2:0
    Bit depth : 8 bits
    Scan type : Progressive
    Bits/(Pixel*Frame) : 0.228
    Stream size : 2.26 GiB (78%)
    Title : BDRip by AFM [RuTracker.org]
    Writing library : x264 core 148 r2665+53 6629127 t_mod_Custom [8-bit@all X86_64]
    Encoding settings : cabac=1 / ref=10 / deblock=1:-3:-3 / analyse=0x3:0x113 / me=umh / subme=10 / psy=1 / fade_compensate=0.00 / psy_rd=1.00:0.05 / mixed_ref=1 / me_range=32 / chroma_me=1 / trellis=2 / 8x8dct=1 / cqm=0 / deadzone=21,11 / fast_pskip=0 / chroma_qp_offset=-3 / threads=6 / lookahead_threads=1 / sliced_threads=0 / nr=0 / decimate=0 / interlaced=0 / bluray_compat=0 / constrained_intra=0 / fgo=0 / bframes=12 / b_pyramid=2 / b_adapt=2 / b_bias=0 / direct=3 / weightb=1 / open_gop=0 / weightp=2 / keyint=250 / keyint_min=23 / scenecut=40 / intra_refresh=0 / rc_lookahead=40 / rc=2pass / mbtree=0 / bitrate=3025 / ratetol=1.0 / qcomp=0.65 / qpmin=0:0:0 / qpmax=69:69:69 / qpstep=4 / cplxblur=20.0 / qblur=0.5 / vbv_maxrate=50000 / vbv_bufsize=62500 / nal_hrd=none / filler=0 / ip_ratio=1.35 / pb_ratio=1.30 / aq=2:0.80 / aq-sensitivity=10.00 / aq-factor=1.00:1.00:1.00 / aq2=0 / aq3=0
    Language : English
    Default : Yes
    Forced : No
    Audio #1
    ID : 2
    Format : AC-3
    Format/Info : Audio Coding 3
    Mode extension : CM (complete main)
    Format settings, Endianness : Big
    Codec ID : A_AC3
    Duration : 1h 49mn
    Bit rate mode : Constant
    Bit rate : 384 Kbps
    Channel(s) : 6 channels
    Channel positions : Front: L C R, Side: L R, LFE
    Sampling rate : 48.0 KHz
    Compression mode : Lossy
    Stream size : 302 MiB (10%)
    Title : Dub, AC3 5.1 ~384 kbps
    Language : Russian
    Default : Yes
    Forced : No
    Audio #2
    ID : 3
    Format : AC-3
    Format/Info : Audio Coding 3
    Mode extension : CM (complete main)
    Format settings, Endianness : Big
    Codec ID : A_AC3
    Duration : 1h 49mn
    Bit rate mode : Constant
    Bit rate : 384 Kbps
    Channel(s) : 6 channels
    Channel positions : Front: L C R, Side: L R, LFE
    Sampling rate : 48.0 KHz
    Compression mode : Lossy
    Stream size : 302 MiB (10%)
    Title : Original, AC3 5.1 ~384 kbps
    Language : English
    Default : No
    Forced : No
    Text #1
    ID : 4
    Format : UTF-8
    Codec ID : S_TEXT/UTF8
    Codec ID/Info : UTF-8 Plain Text
    Title : forced
    Language : Russian
    Default : Yes
    Forced : Yes
    Text #2
    ID : 5
    Format : UTF-8
    Codec ID : S_TEXT/UTF8
    Codec ID/Info : UTF-8 Plain Text
    Language : Russian
    Default : No
    Forced : No
    Text #3
    ID : 6
    Format : UTF-8
    Codec ID : S_TEXT/UTF8
    Codec ID/Info : UTF-8 Plain Text
    Language : English
    Default : No
    Forced : No
    Menu
    00:00:00.000 : en:Chapter 1
    00:04:07.372 : en:Chapter 2
    00:08:06.903 : en:Chapter 3
    00:11:14.674 : en:Chapter 4
    00:15:20.378 : en:Chapter 5
    00:18:58.554 : en:Chapter 6
    00:22:27.263 : en:Chapter 7
    00:26:06.857 : en:Chapter 8
    00:28:59.237 : en:Chapter 9
    00:32:02.379 : en:Chapter 10
    00:36:01.451 : en:Chapter 11
    00:41:11.427 : en:Chapter 12
    00:46:17.692 : en:Chapter 13
    00:51:48.480 : en:Chapter 14
    00:56:42.691 : en:Chapter 15
    00:59:55.509 : en:Chapter 16
    01:02:37.587 : en:Chapter 17
    01:06:57.180 : en:Chapter 18
    01:11:25.198 : en:Chapter 19
    01:15:14.051 : en:Chapter 20
    01:18:10.352 : en:Chapter 21
    01:21:06.278 : en:Chapter 22
    01:25:20.490 : en:Chapter 23
    01:28:17.542 : en:Chapter 24
    01:33:35.276 : en:Chapter 25
    01:37:51.783 : en:Chapter 26
    01:41:32.920 : en:Chapter 27
    01:43:34.375 : en:Chapter 28

    x264

    x264 [info]: frame I:1318 Avg QP:14.16 size: 89731
    x264 [info]: frame P:37401 Avg QP:17.43 size: 31761
    x264 [info]: frame B:119280 Avg QP:19.18 size: 9934
    x264 [info]: consecutive B-frames: 3.5% 6.1% 8.8% 17.3% 16.9% 34.0% 6.3% 2.3% 1.6% 1.1% 0.7% 0.5% 0.9%
    x264 [info]: mb I I16..4: 10.3% 68.2% 21.4%
    x264 [info]: mb P I16..4: 1.8% 15.8% 1.9% P16..4: 33.4% 24.8% 13.2% 0.0% 0.0% skip: 9.2%
    x264 [info]: mb B I16..4: 0.1% 1.0% 0.2% B16..8: 37.5% 12.6% 3.7% direct: 7.3% skip:37.6% L0:44.0% L1:43.2% BI:12.8%
    x264 [info]: 8x8 transform intra:78.9% inter:59.1%
    x264 [info]: direct mvs spatial:98.1% temporal:1.9%
    x264 [info]: coded y,uvDC,uvAC intra: 84.6% 78.9% 62.0% inter: 28.7% 26.9% 13.3%
    x264 [info]: i16 v,h,dc,p: 30% 8% 10% 52%
    x264 [info]: i8 v,h,dc,ddl,ddr,vr,hd,vl,hu: 13% 8% 10% 9% 13% 13% 12% 12% 12%
    x264 [info]: i4 v,h,dc,ddl,ddr,vr,hd,vl,hu: 11% 7% 5% 10% 15% 15% 13% 12% 12%
    x264 [info]: i8c dc,h,v,p: 49% 19% 18% 14%
    x264 [info]: Weighted P-Frames: Y:97.6% UV:4.7%
    x264 [info]: ref P L0: 46.7% 10.3% 17.8% 6.7% 5.5% 3.6% 3.4% 1.9% 1.9% 1.8% 0.4% 0.0%
    x264 [info]: ref B L0: 68.7% 14.1% 6.6% 3.6% 2.4% 2.0% 1.5% 0.7% 0.3%
    x264 [info]: ref B L1: 91.7% 8.3%
    x264 [info]: kb/s:3024.11

    Скриншоты

    с названием

    Скачать .torrent

    Скачать торрент-файл бесплатно и на максимальной скорости!

    Как скачивать? · Что такое торрент? · Рейтинг и ограничения

    !ВНИМАНИЕ!
    Сайт не распространяет и не хранит электронные версии произведений, а занимается лишь лишь предоставлением доступа к создаваемому пользователями каталогу ссылок на торрент-файлы, которые содержат только списки хеш-сумм, убедительная просьба с жалобами обращаться напрямую к пользователю. Файлы для обмена на трекере предоставлены пользователями сайта, и администрация не несёт ответственности за их содержание. Просьба не заливать файлы, защищенные авторскими правами, а также файлы нелегального содержания!


    _________________
    [Профиль] [ЛС]
    Показать сообщения:    
    Ответить на тему

    Текущее время: Сегодня, в 00:13

    Часовой пояс: GMT + 2



    Вы не можете начинать темы
    Вы не можете отвечать на сообщения
    Вы не можете редактировать свои сообщения
    Вы не можете удалять свои сообщения
    Вы не можете голосовать в опросах
    Вы не можете прикреплять файлы к сообщениям
    Вы не можете скачивать файлы