BitTorrentTracker PerecTracker.org
BitTorrentTracker PerecTracker.org
    
Регистрация  ·  Вход
 
 · 
Забыли пароль?

  • Кухня / Сезон: 1 / Серии: 1-20 из 20 (Дмитрий Дьяченко, Жора Крыжовников, Антон Федотов) [2012, Комедия, SATRip]

    Ответить на тему
     
    Автор Сообщение

    rechyn

    Создавать темы 01-Мар-2016 23:40

           

    [Цитировать]

    Кухня 1 сезон ( 1-20 )-Вкусная комедия-Год выпуска: 2012
    Производство: YBW Group
    Жанр: Комедия, Семейный
    Продолжительность: ~00:24:59
    Режиссёр: Дмитрий Дьяченко, Жора Крыжовников, Антон Федотов
    Дата российской премьеры: 22.10.2012

    В ролях: Никита Тарасов, Дмитрий Назаров, Марк Богатырев, Дмитрий Нагиев, Юлия Такшина, Елена Подкаминская, Марина Могилевская, Сергей Лавыгин, Виктор Хориняк, Сергей Епишев, Ольга Кузьмина, Екатерина Кузнецова (IV), Михаил Тарабукин, Виктория Лукина, Елена Чернявская, Виталий Щанников, Сергей Беляев, Роман Индык, Евгения Храповицкая, Серафима Низовская
    Описание: «Во все времена еда была рядом с людьми. Она искушает, вдохновляет, восхищает, отвращает. Но человек не может без еды, а значит тот, кто создает еду, может управлять миром…». Так думал Максим Лавров, когда шел осуществлять свою мечту — устраиваться поваром в один из самых дорогих ресторанов столицы.
    Мечта сбылась, вот только на деле все вышло не так вкусно. Шеф-повар ресторана Виктор Баринов — настоящая звезда гастрономического бомонда, знающая как угодить взыскательной публике. Оборотная сторона этого идеального образа — злоупотребление алкоголем, страсть к азартным играм и невыносимый характер. В гневе Баринов страшен, в загуле — неукротим.
    Арт-директор Виктория Гончарова — настоящая снежная королева, карьеристка с ледяным сердцем, однако именно с ней Макс проводит ночь до того, как пойти на новую работу. А вся команда поваров только и ждет промашки новичка, чтобы от души посмеяться.
    Сэмпл: Скачать
    Качество видео: SATRip
    Формат: AVI
    Видео кодек: XVID
    Аудио кодек: MP3
    Видео: XVID, 720x400, 30,000 кадров/сек, 1257 Кбит/сек.
    Аудио: MP3, 44,1 КГц, 2 канала, 128 Кбит/сек.

    MedaiInfo


    Формат : AVI
    Формат/Информация : Audio Video Interleave
    Профиль формата : OpenDML
    Настройки формата : rec
    Размер файла : 249 Мбайт
    Продолжительность : 24 м.
    Общий поток : 1395 Кбит/сек
    Программа кодирования : AVI-Mux GUI 1.17.8.3, Feb 16 201019:42:50
    Видео
    Идентификатор : 0
    Формат : MPEG-4 Visual
    Профиль формата : Advanced Simple@L5
    Параметр BVOP формата : 2
    Параметр QPel формата : Нет
    Параметр GMC формата : Без точки перехода
    Параметр матрицы формата : Default (MPEG)
    Идентификатор кодека : XVID
    Идентификатор кодека/Подсказка : XviD
    Продолжительность : 24 м.
    Битрейт : 1257 Кбит/сек
    Ширина : 704 пикселя
    Высота : 400 пикселей
    Соотношение сторон : 16:9
    Частота кадров : 25,000 кадров/сек
    Цветовое пространство : YUV
    Субдискретизация насыщенности : 4:2:0
    Битовая глубина : 8 бит
    Тип развёртки : Прогрессивная
    Метод сжатия : С потерями
    Бит/(Пиксели*Кадры) : 0.179
    Размер потока : 225 Мбайт (90%)
    Библиотека кодирования : XviD 64
    Аудио
    Идентификатор : 1
    Формат : MPEG Audio
    Версия формата : Version 1
    Профиль формата : Layer 3
    Режим : Joint stereo
    Расширение режима : MS Stereo
    Идентификатор кодека : 55
    Идентификатор кодека/Подсказка : MP3
    Продолжительность : 24 м.
    Вид битрейта : Постоянный
    Битрейт : 128 Кбит/сек
    Каналы : 2 канала
    Частота : 48,0 КГц
    Метод сжатия : С потерями
    Размер потока : 22,9 Мбайт (9%)
    Выравнивание : Соединение по промежуткам
    Продолжительность промежутка : 24 мс. (0,60 видеокадр)
    Время предзагрузки промежутка : 192 мс.
    -

    Актеры сериала

    Главный герой: Максим

    Он же: Марк Богатырев
    |-Шеф-повар: Виктор Баринов

    Дмитрий Назаров
    |-Директор ресторана: Дмитрий Владимирович

    Дмитрий Нагиев
    |-Арт-директор: Виктория

    Елена Подкаминская
    |-Шеф-повар ресторана-конкурента: Елена

    Марина Могилевская
    |-Бармен: Костя

    Виктор Хориняк
    |-Официантка: Саша

    Екатерина Кузнецова
    |-Официантка: Настя

    Ольга Кузьмина
    |-Айнура

    Жанныл Асанбекова
    |-Повар: Сеня

    Сергей Лавыгин
    |-Повар: Луи

    Никита Тарасов
    |-Повар: Лёва

    Сергей Епишев
    |-Повар: Федя

    Михаил Тарабукин
    -Скриншоты:
    -
    Скачать .torrent

    Скачать торрент-файл бесплатно и на максимальной скорости!

    Как скачивать? · Что такое торрент? · Рейтинг и ограничения

    !ВНИМАНИЕ!
    Сайт не распространяет и не хранит электронные версии произведений, а занимается лишь лишь предоставлением доступа к создаваемому пользователями каталогу ссылок на торрент-файлы, которые содержат только списки хеш-сумм, убедительная просьба с жалобами обращаться напрямую к пользователю. Файлы для обмена на трекере предоставлены пользователями сайта, и администрация не несёт ответственности за их содержание. Просьба не заливать файлы, защищенные авторскими правами, а также файлы нелегального содержания!


    _________________
    [Профиль] [ЛС]
    Показать сообщения:    
    Ответить на тему

    Текущее время: Сегодня, в 08:49

    Часовой пояс: GMT + 2



    Вы не можете начинать темы
    Вы не можете отвечать на сообщения
    Вы не можете редактировать свои сообщения
    Вы не можете удалять свои сообщения
    Вы не можете голосовать в опросах
    Вы не можете прикреплять файлы к сообщениям
    Вы не можете скачивать файлы