BitTorrentTracker PerecTracker.org
BitTorrentTracker PerecTracker.org
    
Регистрация  ·  Вход
 
 · 
Забыли пароль?

  • Кухня / Сезон: 5 / Серии: 1-20 из 20 (Дмитрий Дьяченко, Жора Крыжовников, Антон Федотов) [2015, Комедия, SATRip]

    Ответить на тему
     
    Автор Сообщение

    rechyn

    Создавать темы 01-Мар-2016 23:04

           

    [Цитировать]

    Кухня 5 сезон ( 1-20 )
    Год выпуска: 2015
    Жанр: Комедия
    Продолжительность: 25:00:00
    Субтитры: Отсутствуют
    Режиссёр: Дмитрий Дьяченко, Жора Крыжовников, Антон Федотов
    В ролях: Дмитрий Назаров, Марк Богатырев, Дмитрий Нагиев, Юлия Такшина, Елена Подкаминская, Марина Могилевская, Виктор Хориняк, Никита Тарасов, Сергей Епишев, Ольга Кузьмина
    Описание: Телезрители приняли телесериал «Кухня» с большим восторгом. За предыдущие сезоны зрители полюбили героев, они стали для них почти родными. Каждая серия сериала поднимала настроение, и не оставляла никого равнодушным. Всем телезрителям было интересно наблюдать за жизнью главных героев. В новом сезоне ожидаются еще лучшие моменты из жизни. Ведь здесь пойдет речь уже о супружеской паре Виктории и Максимом. Парень устраивается на роботу в ресторан французской кухни и ему предстоит доказать всем, а главное шеф-повару, что он лучшие и способен на многое. На первый взгляд может показаться, что шеф грубый и черствый, но это не так. Ведь он всегда готов защищать свой ресторан и своих подчиненных. Шефа все любят и уважают, в ресторан приходят известные люди, ради этого человека. Каждая новая серия, это новый день из жизни героев. Новый сезон сериала будет еще лучше и увлекательней. Героям предстоит пережить много новых событий. Смотрите новый сезон телесериала «Кухня».

    Качество: SATRip
    Формат: AVI
    Видео кодек: XVID
    Аудио кодек: MP3
    Видео: XVID, 720x400, 30,000 кадров/сек, 1906 Кбит/сек.
    Аудио: MP3, 44,1 КГц, 2 канала, 128 Кбит/сек.

    MI

    Формат : AVI
    Формат/Информация : Audio Video Interleave
    Размер файла : 386 Мбайт
    Продолжительность : 26 м.
    Общий поток : 2046 Кбит/сек
    Программа кодирования : transcode-1.1.5
    Видео
    Идентификатор : 0
    Формат : MPEG-4 Visual
    Профиль формата : Advanced Simple@L5
    Параметр BVOP формата : 1
    Параметр QPel формата : Нет
    Параметр GMC формата : Без точки перехода
    Параметр матрицы формата : Default (MPEG)
    Идентификатор кодека : XVID
    Идентификатор кодека/Подсказка : XviD
    Продолжительность : 26 м.
    Битрейт : 1906 Кбит/сек
    Ширина : 720 пикселей
    Высота : 400 пикселей
    Соотношение сторон : 16:9
    Частота кадров : 30,000 кадров/сек
    Цветовое пространство : YUV
    Субдискретизация насыщенности : 4:2:0
    Битовая глубина : 8 бит
    Тип развёртки : Прогрессивная
    Метод сжатия : С потерями
    Бит/(Пиксели*Кадры) : 0.221
    Размер потока : 360 Мбайт (93%)
    Библиотека кодирования : XviD 65
    Аудио
    Идентификатор : 1
    Формат : MPEG Audio
    Версия формата : Version 1
    Профиль формата : Layer 3
    Режим : Joint stereo
    Идентификатор кодека : 55
    Идентификатор кодека/Подсказка : MP3
    Продолжительность : 26 м.
    Вид битрейта : Постоянный
    Битрейт : 128 Кбит/сек
    Каналы : 2 канала
    Частота : 44,1 КГц
    Метод сжатия : С потерями
    Задержка видео : 23 мс.
    Размер потока : 24,2 Мбайт (6%)
    Выравнивание : Разделение по промежуткам
    Продолжительность промежутка : 33 мс. (1,00 видеокадр)
    Время предзагрузки промежутка : 500 мс.
    Библиотека кодирования : LAME3.99.5

    Скриншоты

    Скачать .torrent

    Скачать торрент-файл бесплатно и на максимальной скорости!

    Как скачивать? · Что такое торрент? · Рейтинг и ограничения

    !ВНИМАНИЕ!
    Сайт не распространяет и не хранит электронные версии произведений, а занимается лишь лишь предоставлением доступа к создаваемому пользователями каталогу ссылок на торрент-файлы, которые содержат только списки хеш-сумм, убедительная просьба с жалобами обращаться напрямую к пользователю. Файлы для обмена на трекере предоставлены пользователями сайта, и администрация не несёт ответственности за их содержание. Просьба не заливать файлы, защищенные авторскими правами, а также файлы нелегального содержания!


    _________________
    [Профиль] [ЛС]
    Показать сообщения:    
    Ответить на тему

    Текущее время: Сегодня, в 20:50

    Часовой пояс: GMT + 2



    Вы не можете начинать темы
    Вы не можете отвечать на сообщения
    Вы не можете редактировать свои сообщения
    Вы не можете удалять свои сообщения
    Вы не можете голосовать в опросах
    Вы не можете прикреплять файлы к сообщениям
    Вы не можете скачивать файлы