BitTorrentTracker PerecTracker.org
BitTorrentTracker PerecTracker.org
    
Регистрация  ·  Вход
 
 · 
Забыли пароль?

  • Жених с того света (Леонид Гайдай) [1958, Комедия, SATRip-AVC]

    Ответить на тему
     
    Автор Сообщение

    rechyn

    Создавать темы 01-Мар-2016 19:20

           

    [Цитировать]

    Жених с того света
    Жанр: Сатирическая комедия
    Год выпуска: 1958
    Продолжительность: 00:47:39
    Режиссёр: Леонид Гайдай
    В ролях: Ростислав Плятт, Георгий Вицин, Вера Алтайская, Рина Зелёная
    Описание: Глава учреждения КУКУ (Кустовое управление курортными учреждениями) виртуоз-бюрократ Петухов попадает в щекотливое положение: вернувшись после трехдневного отсутствия от невесты, он обнаруживает... что его похоронили, причем совершенно на законных основаниях. Более того, его уволили, и по всем документам он уже не числится среди живых. "Ожить" в бюрократической системе оказалось очень непросто.

    Качество видео: SATRip-AVC
    Формат видео: MKV
    Видео: AVC, 688x568@757x568 (1.33:1), 25 fps, 2450 kbps avg, 0.251 bit/pixel
    Аудио: AC3, 48 kHz, stereo, 256.00 kbps avg

    x264 log

    x264 [info]: frame I:412 Avg QP:19.30 size: 64025
    x264 [info]: frame P:20044 Avg QP:22.02 size: 27262
    x264 [info]: frame B:51009 Avg QP:24.42 size: 5934

    MediaInfo

    General
    Unique ID : 209047619666058195046029411300954662389 (0x9D451B67BEBA5F58B1A8940593A0E5F5)
    Complete name : D:\Видео\Для обработки\Жених с того света (1958).mkv
    Format : Matroska
    Format version : Version 4 / Version 2
    File size : 923 MiB
    Duration : 47mn 38s
    Overall bit rate : 2 708 Kbps
    Encoded date : UTC 2016-02-27 11:24:11
    Writing application : mkvmerge v8.3.0 ('Over the Horizon') 64bit
    Writing library : libebml v1.3.1 + libmatroska v1.4.2
    DURATION : 00:47:38.624000000
    NUMBER_OF_FRAMES : 89332
    NUMBER_OF_BYTES : 91475968
    _STATISTICS_WRITING_APP : mkvmerge v8.3.0 ('Over the Horizon') 64bit
    _STATISTICS_WRITING_DATE_UTC : 2016-02-27 11:24:11
    _STATISTICS_TAGS : BPS DURATION NUMBER_OF_FRAMES NUMBER_OF_BYTES
    Video
    ID : 1
    Format : AVC
    Format/Info : Advanced Video Codec
    Format profile : High@L4.1
    Format settings, CABAC : Yes
    Format settings, ReFrames : 15 frames
    Codec ID : V_MPEG4/ISO/AVC
    Duration : 47mn 38s
    Bit rate : 2 450 Kbps
    Width : 688 pixels
    Height : 568 pixels
    Display aspect ratio : 4:3
    Frame rate mode : Constant
    Frame rate : 25.000 fps
    Color space : YUV
    Chroma subsampling : 4:2:0
    Bit depth : 8 bits
    Scan type : Progressive
    Bits/(Pixel*Frame) : 0.251
    Stream size : 817 MiB (89%)
    Writing library : x264 core 148 r2638 7599210
    Encoding settings : cabac=1 / ref=15 / deblock=1:-2:-2 / analyse=0x3:0x113 / me=umh / subme=9 / psy=1 / psy_rd=1.05:0.10 / mixed_ref=1 / me_range=32 / chroma_me=1 / trellis=2 / 8x8dct=1 / cqm=0 / deadzone=21,11 / fast_pskip=1 / chroma_qp_offset=-3 / threads=6 / lookahead_threads=1 / sliced_threads=0 / nr=0 / decimate=1 / interlaced=0 / bluray_compat=0 / constrained_intra=0 / bframes=8 / b_pyramid=2 / b_adapt=2 / b_bias=0 / direct=3 / weightb=1 / open_gop=0 / weightp=2 / keyint=240 / keyint_min=24 / scenecut=40 / intra_refresh=0 / rc_lookahead=60 / rc=2pass / mbtree=1 / bitrate=2450 / ratetol=1.0 / qcomp=0.60 / qpmin=0 / qpmax=69 / qpstep=4 / cplxblur=20.0 / qblur=0.5 / vbv_maxrate=14000 / vbv_bufsize=14000 / nal_hrd=none / filler=0 / ip_ratio=1.40 / aq=1:1.00
    Language : English
    Default : Yes
    Forced : No
    DURATION : 00:47:38.600000000
    NUMBER_OF_FRAMES : 71465
    NUMBER_OF_BYTES : 875493015
    _STATISTICS_WRITING_APP : mkvmerge v8.3.0 ('Over the Horizon') 64bit
    _STATISTICS_WRITING_DATE_UTC : 2016-02-27 11:24:11
    _STATISTICS_TAGS : BPS DURATION NUMBER_OF_FRAMES NUMBER_OF_BYTES
    Audio
    ID : 2
    Format : AC-3
    Format/Info : Audio Coding 3
    Mode extension : CM (complete main)
    Format settings, Endianness : Big
    Codec ID : A_AC3
    Duration : 47mn 38s
    Bit rate mode : Constant
    Bit rate : 256 Kbps
    Channel(s) : 2 channels
    Channel positions : Front: L R
    Sampling rate : 48.0 KHz
    Bit depth : 16 bits
    Compression mode : Lossy
    Stream size : 87.2 MiB (9%)
    Language : Russian
    Default : Yes
    Forced : No

    Скриншоты

    Скачать .torrent

    Скачать торрент-файл бесплатно и на максимальной скорости!

    Как скачивать? · Что такое торрент? · Рейтинг и ограничения

    !ВНИМАНИЕ!
    Сайт не распространяет и не хранит электронные версии произведений, а занимается лишь лишь предоставлением доступа к создаваемому пользователями каталогу ссылок на торрент-файлы, которые содержат только списки хеш-сумм, убедительная просьба с жалобами обращаться напрямую к пользователю. Файлы для обмена на трекере предоставлены пользователями сайта, и администрация не несёт ответственности за их содержание. Просьба не заливать файлы, защищенные авторскими правами, а также файлы нелегального содержания!


    _________________
    [Профиль] [ЛС]
    Показать сообщения:    
    Ответить на тему

    Текущее время: Сегодня, в 00:20

    Часовой пояс: GMT + 2



    Вы не можете начинать темы
    Вы не можете отвечать на сообщения
    Вы не можете редактировать свои сообщения
    Вы не можете удалять свои сообщения
    Вы не можете голосовать в опросах
    Вы не можете прикреплять файлы к сообщениям
    Вы не можете скачивать файлы