BitTorrentTracker PerecTracker.org
BitTorrentTracker PerecTracker.org
    
Регистрация  ·  Вход
 
 · 
Забыли пароль?

  • Карнозавр 1, 2, 3 / Carnosaur 1, 2, 3 (Адам Саймон / Adam Simon, Луис Морно / Louis Morneau, Джонатан Уинфри / Jonathan Winfrey) [1993, США, фантастика, ужасы, DVDRip] 2х MVO (НТВ, Инис) + DVO (РенТВ) + AVO (Дохалов, Дольский, Кашкин) + Original Eng

    Ответить на тему
     
    Автор Сообщение

    rechyn

    Создавать темы 01-Мар-2016 19:07

           

    [Цитировать]

    Карнозавр / Эксперимент "Карнозавр" / Carnosaur
    Страна: США
    Жанр: фантастика, ужасы
    Год выпуска: 1993
    Продолжительность: 01:24:16
    Перевод: Профессиональный (многоголосый закадровый) - НТВ
    Перевод: Профессиональный (многоголосый закадровый) - Инис по заказу ТВ3
    Перевод: Профессиональный (двухголосый закадровый) - РенТВ
    Перевод: Авторский (одноголосый закадровый) - Вартан Дохалов
    Перевод: Авторский (одноголосый закадровый) - Андрей Дольский
    Cубтитры: нет
    Оригинальная аудиодорожка: английский

    Режиссер: Адам Саймон / Adam Simon
    В ролях: Дайан Лэдд, Рафаэль Сбардж, Дженнифер Раньон, Харрисон Пейдж, Нед Беллами, Клинт Ховард, Фрэнк Новак, Эд Уильямс, Эндрю Магериан, Брент Хинкли
    Описание: Доктор Джейн Типтри, специалист в области генетических исследований, лелеет далеко идущие замыслы относительно населения Земли: она скрестила ДНК человека и динозавра, не подозревая, разумеется, к каким последствиям ее действия приведут. Опыты она проводит на цыплятах и курах, которые также служат замечательным кормом для динозавра, когда тот появляется на свет в инкубаторе доктора Типтри.
    Первобытному монстру быстро надоедает кушать одних только несушек, и он сбегает на волю, где вокруг столько двуногого корма. Полиция во множестве находит изуродованные трупы, не понимая, что за убийца-маньяк объявился в округе, а имя злодею — карнозавр…

    Качество видео: DVDRip
    Формат видео: AVI
    Видео: 624x480 (1.30:1), 23.976 fps, XviD build 73 ~1887 kbps avg, 0.26 bit/pixel
    Аудио: 48 kHz, AC3 Dolby Digital, 2/0 (L,R) ch, ~192 kbps - НТВ
    Аудио: 48 kHz, AC3 Dolby Digital, 2/0 (L,R) ch, ~192 kbps - Инис
    Аудио: 48 kHz, AC3 Dolby Digital, 2/0 (L,R) ch, ~192 kbps - РенТВ
    Отдельными файлами:
    Аудио: 48 kHz, AC3 Dolby Digital, 2/0 (L,R) ch, ~192 kbps - Дохалов
    Аудио: 48 kHz, AC3 Dolby Digital, 2/0 (L,R) ch, ~192 kbps - Дольский
    Аудио: 48 kHz, AC3 Dolby Digital, 2/0 (L,R) ch, ~192 kbps - оригинал

    MediaInfo

    Общее
    Полное имя : H:\Carnosaur_Trilogy_1993-1996.dvdrip_[teko]\Carnosaur.1993.dvdrip_[1.46]\Carnosaur.1993.dvdrip_[1.46].avi
    Формат : AVI
    Формат/Информация : Audio Video Interleave
    Размер файла : 1,46 Гбайт
    Продолжительность : 1 ч. 24 м.
    Общий поток : 2478 Кбит/сек
    Программа кодирования : VirtualDubMod 1.5.10.3 | www.virtualdub-fr.org || (build 2550/release)
    Библиотека кодирования : VirtualDubMod build 2550/release
    Видео
    Идентификатор : 0
    Формат : MPEG-4 Visual
    Профиль формата : Advanced Simple@L5
    Параметр BVOP формата : 2
    Параметр QPel формата : Нет
    Параметр GMC формата : Без точки перехода
    Параметр матрицы формата : Выборочная
    Идентификатор кодека : XVID
    Идентификатор кодека/Подсказка : XviD
    Продолжительность : 1 ч. 24 м.
    Битрейт : 1889 Кбит/сек
    Ширина : 624 пикселя
    Высота : 480 пикселей
    Соотношение сторон : 4:3
    Частота кадров : 23,976 кадра/сек
    Цветовое пространство : YUV
    Субдискретизация насыщенности : 4:2:0
    Битовая глубина : 8 бит
    Тип развёртки : Прогрессивная
    Метод сжатия : С потерями
    Бит/(Пиксели*Кадры) : 0.263
    Размер потока : 1,11 Гбайт (76%)
    Библиотека кодирования : XviD 73
    Аудио #1
    Идентификатор : 1
    Формат : AC-3
    Формат/Информация : Audio Coding 3
    Расширение режима : CM (complete main)
    Параметр Endianness формата : Big
    Идентификатор кодека : 2000
    Продолжительность : 1 ч. 22 м.
    Вид битрейта : Постоянный
    Битрейт : 192 Кбит/сек
    Каналы : 2 канала
    Расположение каналов : Front: L R
    Частота : 48,0 КГц
    Битовая глубина : 16 бит
    Метод сжатия : С потерями
    Размер потока : 114 Мбайт (8%)
    Выравнивание : Разделение по промежуткам
    Продолжительность промежутка : 42 мс. (1,02 видеокадр)
    Время предзагрузки промежутка : 500 мс.
    Аудио #2
    Идентификатор : 2
    Формат : AC-3
    Формат/Информация : Audio Coding 3
    Расширение режима : CM (complete main)
    Параметр Endianness формата : Big
    Идентификатор кодека : 2000
    Продолжительность : 1 ч. 22 м.
    Вид битрейта : Постоянный
    Битрейт : 192 Кбит/сек
    Каналы : 2 канала
    Расположение каналов : Front: L R
    Частота : 48,0 КГц
    Битовая глубина : 16 бит
    Метод сжатия : С потерями
    Размер потока : 114 Мбайт (8%)
    Выравнивание : Разделение по промежуткам
    Продолжительность промежутка : 42 мс. (1,02 видеокадр)
    Время предзагрузки промежутка : 500 мс.
    Аудио #3
    Идентификатор : 3
    Формат : AC-3
    Формат/Информация : Audio Coding 3
    Расширение режима : CM (complete main)
    Параметр Endianness формата : Big
    Идентификатор кодека : 2000
    Продолжительность : 1 ч. 24 м.
    Вид битрейта : Постоянный
    Битрейт : 192 Кбит/сек
    Каналы : 2 канала
    Расположение каналов : Front: L R
    Частота : 48,0 КГц
    Битовая глубина : 16 бит
    Метод сжатия : С потерями
    Размер потока : 116 Мбайт (8%)
    Выравнивание : Разделение по промежуткам
    Продолжительность промежутка : 42 мс. (1,00 видеокадр)
    Время предзагрузки промежутка : 500 мс.

    Скриншоты

    ------Карнозавр 2 / Эксперимент "Карнозавр" 2 / Carnosaur 2
    Страна: США
    Жанр: фантастика, ужасы
    Год выпуска: 1995
    Продолжительность: 01:22:07
    Перевод: Профессиональный (многоголосый закадровый) - НТВ
    Перевод: Профессиональный (многоголосый закадровый) - Инис по заказу ТВ3
    Перевод: Профессиональный (двухголосый закадровый) - РенТВ
    Перевод: Авторский (одноголосый закадровый) - Антон Алексеев
    Cубтитры: нет
    Оригинальная аудиодорожка: английский

    Режиссер: Луис Морно / Louis Morneau
    В ролях: Джон Сэвэдж, Клифф Де Янг, Дон Страуд, Рик Дин, Райан Томас Джонсон, Арабелла Хольцбог, Мигель А. Нуньес мл., Нейт Хантер, Гай Бойд, Майкл МакДональд
    Описание: Когда была потеряна связь с урановым рудником, что находился в пустыне штата Невада, власти заволновались и отправили туда команду специалистов во главе с Джеком Ридом и Томом МакКуэйдом. Специалисты приехали и увидели жуткую картину: все оборудование разворочено, а рабочие зверски убиты, — причем картина эта вряд ли была созданием рук человеческих.
    Вскоре и этим специалистам пришлось столкнуться нос к носу с первобытными тварями — карнозаврами, что вывелись из яиц, с которыми экспериментировала доктор Типтри (завершившая свое существование в первой серии фильма). Люди оказались вполне подходящими по вкусу для монстров, гнездо которых было не где-нибудь, а на складе ядерных боеголовок. И потому, если разворошить карнозаврово гнездо, предварительно не подумав, как правильно это сделать, то, по словам одного из персонажей, «Хиросима покажется пионерским костром»…

    Качество видео: DVDRip
    Формат видео: AVI
    Видео: 624x480 (1.30:1), 23.976 fps, XviD build 73 ~1951 kbps avg, 0.27 bit/pixel
    Аудио: 48 kHz, AC3 Dolby Digital, 2/0 (L,R) ch, ~192 kbps - НТВ
    Аудио: 48 kHz, AC3 Dolby Digital, 2/0 (L,R) ch, ~192 kbps - Инис
    Аудио: 48 kHz, AC3 Dolby Digital, 2/0 (L,R) ch, ~192 kbps - РенТВ
    отдельными файлами:
    Аудио: 48 kHz, AC3 Dolby Digital, 2/0 (L,R) ch, ~192 kbps - Алексеев
    Аудио: 48 kHz, AC3 Dolby Digital, 2/0 (L,R) ch, ~192 kbps - оригинал

    MediaInfo

    Общее
    Полное имя : H:\Carnosaur_Trilogy_1993-1996.dvdrip_[teko]\Carnosaur_2.1995.dvdrip_[1.46]\Carnosaur_2.1995.dvdrip_[1.46].avi
    Формат : AVI
    Формат/Информация : Audio Video Interleave
    Размер файла : 1,46 Гбайт
    Продолжительность : 1 ч. 22 м.
    Общий поток : 2548 Кбит/сек
    Программа кодирования : VirtualDubMod 1.5.10.3 | www.virtualdub-fr.org || (build 2550/release)
    Библиотека кодирования : VirtualDubMod build 2550/release
    Видео
    Идентификатор : 0
    Формат : MPEG-4 Visual
    Профиль формата : Advanced Simple@L5
    Параметр BVOP формата : 2
    Параметр QPel формата : Нет
    Параметр GMC формата : Без точки перехода
    Параметр матрицы формата : Выборочная
    Идентификатор кодека : XVID
    Идентификатор кодека/Подсказка : XviD
    Продолжительность : 1 ч. 22 м.
    Битрейт : 1953 Кбит/сек
    Ширина : 624 пикселя
    Высота : 480 пикселей
    Соотношение сторон : 4:3
    Частота кадров : 23,976 кадра/сек
    Цветовое пространство : YUV
    Субдискретизация насыщенности : 4:2:0
    Битовая глубина : 8 бит
    Тип развёртки : Прогрессивная
    Метод сжатия : С потерями
    Бит/(Пиксели*Кадры) : 0.272
    Размер потока : 1,12 Гбайт (77%)
    Библиотека кодирования : XviD 73
    Аудио #1
    Идентификатор : 1
    Формат : AC-3
    Формат/Информация : Audio Coding 3
    Расширение режима : CM (complete main)
    Параметр Endianness формата : Big
    Идентификатор кодека : 2000
    Продолжительность : 1 ч. 22 м.
    Вид битрейта : Постоянный
    Битрейт : 192 Кбит/сек
    Каналы : 2 канала
    Расположение каналов : Front: L R
    Частота : 48,0 КГц
    Битовая глубина : 16 бит
    Метод сжатия : С потерями
    Размер потока : 113 Мбайт (8%)
    Выравнивание : Разделение по промежуткам
    Продолжительность промежутка : 42 мс. (1,00 видеокадр)
    Время предзагрузки промежутка : 500 мс.
    Аудио #2
    Идентификатор : 2
    Формат : AC-3
    Формат/Информация : Audio Coding 3
    Расширение режима : CM (complete main)
    Параметр Endianness формата : Big
    Идентификатор кодека : 2000
    Продолжительность : 1 ч. 22 м.
    Вид битрейта : Постоянный
    Битрейт : 192 Кбит/сек
    Каналы : 2 канала
    Расположение каналов : Front: L R
    Частота : 48,0 КГц
    Битовая глубина : 16 бит
    Метод сжатия : С потерями
    Размер потока : 113 Мбайт (8%)
    Выравнивание : Разделение по промежуткам
    Продолжительность промежутка : 42 мс. (1,00 видеокадр)
    Время предзагрузки промежутка : 500 мс.
    Аудио #3
    Идентификатор : 3
    Формат : AC-3
    Формат/Информация : Audio Coding 3
    Расширение режима : CM (complete main)
    Параметр Endianness формата : Big
    Идентификатор кодека : 2000
    Продолжительность : 1 ч. 22 м.
    Вид битрейта : Постоянный
    Битрейт : 192 Кбит/сек
    Каналы : 2 канала
    Расположение каналов : Front: L R
    Частота : 48,0 КГц
    Битовая глубина : 16 бит
    Метод сжатия : С потерями
    Размер потока : 113 Мбайт (8%)
    Выравнивание : Разделение по промежуткам
    Продолжительность промежутка : 42 мс. (1,00 видеокадр)
    Время предзагрузки промежутка : 500 мс.

    Скриншоты

    ------Карнозавр 3 / Эксперимент "Карнозавр" 3: Первобытные Твари / Carnosaur 3: Primal Species

    Страна: США
    Жанр: фантастика, ужасы, боевик
    Год выпуска: 1996
    Продолжительность: 01:20:58
    Перевод: Профессиональный (многоголосый закадровый) - НТВ
    Перевод: Профессиональный (многоголосый закадровый) - Инис по заказу ТВ3
    Перевод: Профессиональный (двухголосый закадровый) - РенТВ
    Перевод: Авторский (одноголосый закадровый) - Александр Кашкин (Первомайский)
    Cубтитры: нет
    Оригинальная аудиодорожка: английский

    Режиссер: Джонатан Уинфри / Jonathan Winfrey
    В ролях: Скотт Валентайн, Джанет Ганн, Рик Дин, Энтони Пек, Роджер Халстон, Терри Дж. Вон, Билли Бернетт, Морган Инглунд, Стивен Ли, Жустина Вэйл
    Описание: Группа террористов нападает на колонну грузовиков, расстреливает сопровождение и угоняет один из рефрижераторов. В лос-анджелесском порту преступники открывают фургон и обнаруживают, что в машине — совсем не то, что им было нужно. Потому что в машине были динозавры. Самые настоящие первобытные твари, которые, слегка разморозившись, тут же приступили к своему излюбленному занятию — пожирать людей. Полицейские, заслышав выстрелы, вопли и прочий шум, тоже подъехали к рефрижератору и тоже оказались жертвами монстров.
    Следующими на очереди были члены спецотряда по борьбе с террористами во главе с полковником Рэнсом Хиггинсом, который получил приказ командования — разыскать похищенный бандитами фургон и его содержимое, после чего вновь погрузить содержимое в машину и доставить (живым!) по месту назначения. Нелегкая задача, если учесть, что карнозаврам все равно кого кушать — террористов, копов или военных…


    Качество видео: DVDRip
    Формат видео: AVI
    Видео: 624x480 (1.30:1), 23.976 fps, XviD build 73 ~1989 kbps avg, 0.28 bit/pixel
    Аудио: 48 kHz, AC3 Dolby Digital, 2/0 (L,R) ch, ~192 kbps - НТВ
    Аудио: 48 kHz, AC3 Dolby Digital, 2/0 (L,R) ch, ~192 kbps - Инис
    Аудио: 48 kHz, AC3 Dolby Digital, 2/0 (L,R) ch, ~192 kbps - РенТВ
    отдельными файлами:
    Аудио: 48 kHz, AC3 Dolby Digital, 2/0 (L,R) ch, ~192 kbps - Кашкин
    Аудио: 48 kHz, AC3 Dolby Digital, 2/0 (L,R) ch, ~192 kbps - оригинал

    MediaInfo

    Общее
    Полное имя : H:\Carnosaur_Trilogy_1993-1996.dvdrip_[teko]\Carnosaur_3.1996.dvdrip_[1.46]\Carnosaur_3.1996.dvdrip_[1.46].avi
    Формат : AVI
    Формат/Информация : Audio Video Interleave
    Размер файла : 1,46 Гбайт
    Продолжительность : 1 ч. 20 м.
    Общий поток : 2584 Кбит/сек
    Программа кодирования : VirtualDubMod 1.5.10.3 | www.virtualdub-fr.org || (build 2550/release)
    Библиотека кодирования : VirtualDubMod build 2550/release
    Видео
    Идентификатор : 0
    Формат : MPEG-4 Visual
    Профиль формата : Advanced Simple@L5
    Параметр BVOP формата : 2
    Параметр QPel формата : Нет
    Параметр GMC формата : Без точки перехода
    Параметр матрицы формата : Выборочная
    Идентификатор кодека : XVID
    Идентификатор кодека/Подсказка : XviD
    Продолжительность : 1 ч. 20 м.
    Битрейт : 1990 Кбит/сек
    Ширина : 624 пикселя
    Высота : 480 пикселей
    Соотношение сторон : 4:3
    Частота кадров : 23,976 кадра/сек
    Цветовое пространство : YUV
    Субдискретизация насыщенности : 4:2:0
    Битовая глубина : 8 бит
    Тип развёртки : Прогрессивная
    Метод сжатия : С потерями
    Бит/(Пиксели*Кадры) : 0.277
    Размер потока : 1,13 Гбайт (77%)
    Библиотека кодирования : XviD 73
    Аудио #1
    Идентификатор : 1
    Формат : AC-3
    Формат/Информация : Audio Coding 3
    Расширение режима : CM (complete main)
    Параметр Endianness формата : Big
    Идентификатор кодека : 2000
    Продолжительность : 1 ч. 20 м.
    Вид битрейта : Постоянный
    Битрейт : 192 Кбит/сек
    Каналы : 2 канала
    Расположение каналов : Front: L R
    Частота : 48,0 КГц
    Битовая глубина : 16 бит
    Метод сжатия : С потерями
    Размер потока : 111 Мбайт (7%)
    Выравнивание : Разделение по промежуткам
    Продолжительность промежутка : 42 мс. (1,00 видеокадр)
    Время предзагрузки промежутка : 500 мс.
    Аудио #2
    Идентификатор : 2
    Формат : AC-3
    Формат/Информация : Audio Coding 3
    Расширение режима : CM (complete main)
    Параметр Endianness формата : Big
    Идентификатор кодека : 2000
    Продолжительность : 1 ч. 20 м.
    Вид битрейта : Постоянный
    Битрейт : 192 Кбит/сек
    Каналы : 2 канала
    Расположение каналов : Front: L R
    Частота : 48,0 КГц
    Битовая глубина : 16 бит
    Метод сжатия : С потерями
    Размер потока : 111 Мбайт (7%)
    Выравнивание : Разделение по промежуткам
    Продолжительность промежутка : 42 мс. (1,00 видеокадр)
    Время предзагрузки промежутка : 500 мс.
    Аудио #3
    Идентификатор : 3
    Формат : AC-3
    Формат/Информация : Audio Coding 3
    Расширение режима : CM (complete main)
    Параметр Endianness формата : Big
    Идентификатор кодека : 2000
    Продолжительность : 1 ч. 20 м.
    Вид битрейта : Постоянный
    Битрейт : 192 Кбит/сек
    Каналы : 2 канала
    Расположение каналов : Front: L R
    Частота : 48,0 КГц
    Битовая глубина : 16 бит
    Метод сжатия : С потерями
    Размер потока : 111 Мбайт (7%)
    Выравнивание : Разделение по промежуткам
    Продолжительность промежутка : 42 мс. (1,00 видеокадр)
    Время предзагрузки промежутка : 500 мс.

    Скриншоты

    --
    Скачать .torrent

    Скачать торрент-файл бесплатно и на максимальной скорости!

    Как скачивать? · Что такое торрент? · Рейтинг и ограничения

    !ВНИМАНИЕ!
    Сайт не распространяет и не хранит электронные версии произведений, а занимается лишь лишь предоставлением доступа к создаваемому пользователями каталогу ссылок на торрент-файлы, которые содержат только списки хеш-сумм, убедительная просьба с жалобами обращаться напрямую к пользователю. Файлы для обмена на трекере предоставлены пользователями сайта, и администрация не несёт ответственности за их содержание. Просьба не заливать файлы, защищенные авторскими правами, а также файлы нелегального содержания!


    _________________
    [Профиль] [ЛС]
    Показать сообщения:    
    Ответить на тему

    Текущее время: Сегодня, в 10:46

    Часовой пояс: GMT + 2



    Вы не можете начинать темы
    Вы не можете отвечать на сообщения
    Вы не можете редактировать свои сообщения
    Вы не можете удалять свои сообщения
    Вы не можете голосовать в опросах
    Вы не можете прикреплять файлы к сообщениям
    Вы не можете скачивать файлы