BitTorrentTracker PerecTracker.org
BitTorrentTracker PerecTracker.org
    
Регистрация  ·  Вход
 
 · 
Забыли пароль?

  • Хранитель Луны в 3Д / Mune, le gardien de la lune / Mune: Guardian of the Moon 3D (Александр Эбоян, Бенуа Филиппон / Alexandre Heboyan, Benoît Philippon) [2014, Мультфильм, Приключения, BDrip-AVC] Half OverUnder / Вертикальная анаморфная стереоп

    Ответить на тему
     
    Автор Сообщение

    rechyn

    Создавать темы 01-Мар-2016 18:11

           

    [Цитировать]

    Хранитель Луны
    Mune, le gardien de la lune
    Mune: Guardian of the Moon

    «Он не спасет мир. Он спасет пять миров!»
    -Год выпуска: 2014
    Страна: Франция (Orange Studio, Kinology, Onyx Films)
    Жанр: Мультфильм, Приключения, Семейный
    Продолжительность: 01:25:54
    Перевод: Профессиональный дублированный
    Режиссеры: Александр Эбоян, Бенуа Филиппон / Alexandre Heboyan, Benoît Philippon-Роли озвучивали (дублировали):
    ______
    Mune - Майкл Грегорио (Василий Буткевич)
    Glim - Изиа Ижлен (Наталия Медведева)
    Sohone - Омар Си (Александр Ревва)
    Glim's father - Патрик Прежан (Александр Новиков)
    Leeyoon - Федор Аткин (Илья Барабанов)
    Necross - Эрик Эрсон-Макарель (Артур Бесчастный)
    Mox - Мишель Меля (Григорий Калинин)
    Spleen - Фабрис Джоссо (Александр Вартанов)
    Xolal - Жан-Клод Донда (Алексей Розин)
    Yule - Бенуа Аллемане (Алексей Багдасаров)
    Phospho - Патрик Пойвей
    Krrrack - Патрис Дозье (Сергей Чихачев)
    Spiders - Александр Эбоян
    -Описание: На диковинной планете, где смена дня и ночи осуществляется вручную, юного фавна Мьюна неожиданно избирают хранителем Луны. Но к своему ужасу, он почти сразу теряет ее! Воспользовавшись этим, царь подземного мира Некрос крадет и гасит Солнце. Теперь, чтобы спасти планету, Мьюн вместе с отважной девочкой из воска Глим и заносчивым Сохоном, хранителем Солнца, должны отправиться в удивительное и опасное путешествие.-Доп. инфо: 3Д очень "мелкое"!-Премьера: 6 декабря 2014 (28 мая 2015)
    Релиз на Blu-Ray (Россия, 2Д): 29 октября 2015

    ..
    За исходный BD 3D Remux спасибо , Прагматик и madoff!
    -Качество: BDRip (by Ash61)
    Контейнер: MKV
    Формат 3D: Half OverUnder / Вертикальная анаморфная стереопара
    Порядок ракурсов: левый ракурс первый-Видео: AVC / 23,976 fps / 1920х1080p / 6655 Kbps
    Аудио:
    #1 - Русский / AC3 / 48 KHz / 5.1 ch / 640 Kbps (Дубляж - BD Rus)
    #2 - Украинский / AC3 / 48 KHz / 2 ch / 192 Kbps (Дубляж - ААА-sound)
    #3 - French / AC3 / 48 KHz / 5.1 ch / 640 Kbps (Original - BD 3D)
    Субтитры: Отсутствуют

    MediaInfo

    General
    Unique ID : 230843924262219817025965777606317227638 (0xADAAEC30EEA7B725B2FB870FB4F4BE76)
    Complete name : E:\MuneLeGardienDeLaLune(2014)3D-halfOU(Ash61).mkv
    Format : Matroska
    Format version : Version 2
    File size : 4.98 GiB
    Duration : 1h 25mn
    Overall bit rate : 8 293 Kbps
    Movie name : Хранитель Луны / Mune, le gardien de la lune / Mune: Guardian of the Moon (2014) в 3Д
    Encoded date : UTC 2016-02-19 17:06:55
    Writing application : mkvmerge v5.8.0 ('No Sleep / Pillow') built on Sep 2 2012 15:37:04
    Writing library : libebml v1.2.3 + libmatroska v1.3.0
    Video
    ID : 1
    Format : AVC
    Format/Info : Advanced Video Codec
    Format profile : High@L4.1
    Format settings, CABAC : Yes
    Format settings, ReFrames : 4 frames
    Codec ID : V_MPEG4/ISO/AVC
    Duration : 1h 25mn
    Bit rate : 6 655 Kbps
    Width : 1 920 pixels
    Height : 1 080 pixels
    Display aspect ratio : 16:9
    Frame rate mode : Constant
    Frame rate : 23.976 fps
    Color space : YUV
    Chroma subsampling : 4:2:0
    Bit depth : 8 bits
    Scan type : Progressive
    Bits/(Pixel*Frame) : 0.134
    Stream size : 3.99 GiB (80%)
    Title : BDRip by Ash61
    Writing library : x264 core 146 r2538 121396c
    Encoding settings : cabac=1 / ref=4 / deblock=1:-3:-3 / analyse=0x3:0x113 / me=umh / subme=10 / psy=1 / psy_rd=1.00:0.00 / mixed_ref=1 / me_range=32 / chroma_me=1 / trellis=2 / 8x8dct=1 / cqm=0 / deadzone=21,11 / fast_pskip=1 / chroma_qp_offset=-2 / threads=12 / lookahead_threads=3 / sliced_threads=0 / nr=0 / decimate=1 / interlaced=0 / bluray_compat=0 / constrained_intra=0 / bframes=10 / b_pyramid=2 / b_adapt=2 / b_bias=0 / direct=3 / weightb=1 / open_gop=0 / weightp=2 / keyint=250 / keyint_min=23 / scenecut=40 / intra_refresh=0 / rc_lookahead=60 / rc=crf / mbtree=1 / crf=15.0 / qcomp=0.70 / qpmin=0 / qpmax=69 / qpstep=4 / vbv_maxrate=40000 / vbv_bufsize=30000 / crf_max=0.0 / nal_hrd=none / filler=0 / frame-packing=4 / ip_ratio=1.40 / aq=1:0.70
    Language : English
    Default : Yes
    Forced : No
    Audio #1
    ID : 2
    Format : AC-3
    Format/Info : Audio Coding 3
    Mode extension : CM (complete main)
    Format settings, Endianness : Big
    Codec ID : A_AC3
    Duration : 1h 25mn
    Bit rate mode : Constant
    Bit rate : 640 Kbps
    Channel(s) : 6 channels
    Channel positions : Front: L C R, Side: L R, LFE
    Sampling rate : 48.0 KHz
    Bit depth : 16 bits
    Compression mode : Lossy
    Stream size : 393 MiB (8%)
    Title : Дубляж - BD Rus
    Language : Russian
    Default : Yes
    Forced : No
    Audio #2
    ID : 3
    Format : AC-3
    Format/Info : Audio Coding 3
    Mode extension : CM (complete main)
    Format settings, Endianness : Big
    Codec ID : A_AC3
    Duration : 1h 25mn
    Bit rate mode : Constant
    Bit rate : 192 Kbps
    Channel(s) : 2 channels
    Channel positions : Front: L R
    Sampling rate : 48.0 KHz
    Bit depth : 16 bits
    Compression mode : Lossy
    Stream size : 118 MiB (2%)
    Title : Дубляж - ААА-sound
    Language : Ukrainian
    Default : No
    Forced : No
    Audio #3
    ID : 4
    Format : AC-3
    Format/Info : Audio Coding 3
    Mode extension : CM (complete main)
    Format settings, Endianness : Big
    Codec ID : A_AC3
    Duration : 1h 25mn
    Bit rate mode : Constant
    Bit rate : 640 Kbps
    Channel(s) : 6 channels
    Channel positions : Front: L C R, Side: L R, LFE
    Sampling rate : 48.0 KHz
    Bit depth : 16 bits
    Compression mode : Lossy
    Stream size : 393 MiB (8%)
    Title : Original
    Language : French
    Default : No
    Forced : No
    Menu
    00:00:00.000 : :1
    00:06:17.752 : :2
    00:13:55.208 : :3
    00:19:02.015 : :4
    00:26:12.069 : :5
    00:34:47.751 : :6
    00:42:15.907 : :7
    00:51:53.777 : :8
    01:01:02.492 : :9
    01:09:13.858 : :10
    01:14:02.938 : :11
    01:18:38.671 : :12

    Скриншоты

    Для оценки 3Д - Анимированные скрины















    Скачать .torrent

    Скачать торрент-файл бесплатно и на максимальной скорости!

    Как скачивать? · Что такое торрент? · Рейтинг и ограничения

    !ВНИМАНИЕ!
    Сайт не распространяет и не хранит электронные версии произведений, а занимается лишь лишь предоставлением доступа к создаваемому пользователями каталогу ссылок на торрент-файлы, которые содержат только списки хеш-сумм, убедительная просьба с жалобами обращаться напрямую к пользователю. Файлы для обмена на трекере предоставлены пользователями сайта, и администрация не несёт ответственности за их содержание. Просьба не заливать файлы, защищенные авторскими правами, а также файлы нелегального содержания!


    _________________
    [Профиль] [ЛС]
    Показать сообщения:    
    Ответить на тему

    Текущее время: Сегодня, в 15:53

    Часовой пояс: GMT + 2



    Вы не можете начинать темы
    Вы не можете отвечать на сообщения
    Вы не можете редактировать свои сообщения
    Вы не можете удалять свои сообщения
    Вы не можете голосовать в опросах
    Вы не можете прикреплять файлы к сообщениям
    Вы не можете скачивать файлы