BitTorrentTracker PerecTracker.org
BitTorrentTracker PerecTracker.org
    
Регистрация  ·  Вход
 
 · 
Забыли пароль?

  • Заколдованное королевство 3Д / Enchanted Kingdom 3D (Патрик Моррис, Нил Найтингейл / Patrick Morris, Neil Nightingale) [2013, Документальный, Видовой, BDrip-AVC] VOх2, Half OverUnder / Вертикальная анаморфная стереопара

    Ответить на тему
     
    Автор Сообщение

    rechyn

    Создавать темы 01-Мар-2016 17:46

           

    [Цитировать]

    -Заколдованное королевство 3Д
    Enchanted Kingdom 3D

    Год выпуска: 2013
    Страна: Великобритания (Reliance Entertainment, IM Global, BBC Earth Films, Evergreen Studios)
    Жанр: Документальный, Видовой
    Продолжительность: 1:27:19
    Перевод: Профессиональные одноголосые закадровые (2 вида)
    Режиссеры: Патрик Моррис, Нил Найтингейл / Patrick Morris, Neil Nightingale
    Рассказчик (на английском): Идрис Эльба
    В фильме снимались: Хейли Джоэнн Бэйкон, India Dale-Hill-Описание: Документальный фильм о дикой природе Африки, снятый за 500 дней с применением новейших инновационных 3D технологий, является, самым амбициозным и зрелищным проектом о живой природе известнейшего мирового производителя фильмов об истории Земли - компании BBC.-Премьера (мир): 5 декабря 2013
    Бюджет: 000 000

    ..
    За русские дороги большое спасибо Volshebnik, Прагматик и меценатам
    -Качество: BDRip (by Ash61 с BD 3D Jap)
    Контейнер: MKV
    Формат 3D: Half OverUnder / Вертикальная анаморфная стереопара
    Порядок ракурсов: левый ракурс первый
    Видео кодек: x264
    Аудио кодек: AC3-Видео: AVC / 23,976 fps / 1920х1080p / 19.6 Mbps
    Аудио:
    #1 - Русский / AC3 / 48 KHz / 5.1 ch / 640 Kbps (VO - Омикрон)
    #2 - Русский / AC3 / 48 KHz / 5.1 ch / 640 Kbps (VO - Д. Есарев)
    #3 - Английский / AC3 / 48 KHz / 5.1 ch / 640 Kbps (Original - BD 3D)
    Субтитры (внешние SRT UTF-8):
    #1 - Русские Полные [перевод любительский - Ash61]
    #2 - English Full

    MediaInfo

    General
    Unique ID : 177156825928917644272508642461559650899 (0x854729E118083169A0AE6C5090B17A53)
    Complete name : E:\EnchantedKingdom(2013)3D-halfOU(Ash61)VOx2\EnchantedKingdom(2013)3D-halfOU(Ash61)VOx2.mkv
    Format : Matroska
    Format version : Version 2
    File size : 13.4 GiB
    Duration : 1h 27mn
    Overall bit rate : 22.0 Mbps
    Movie name : Царство очарования 3Д / Enchanted Kingdom 3D (2013) 3D
    Encoded date : UTC 2014-12-27 14:14:26
    Writing application : mkvmerge v5.8.0 ('No Sleep / Pillow') built on Sep 2 2012 15:37:04
    Writing library : libebml v1.2.3 + libmatroska v1.3.0
    Video
    ID : 1
    Format : AVC
    Format/Info : Advanced Video Codec
    Format profile : High@L4.1
    Format settings, CABAC : Yes
    Format settings, ReFrames : 4 frames
    Codec ID : V_MPEG4/ISO/AVC
    Duration : 1h 27mn
    Bit rate : 19.6 Mbps
    Width : 1 920 pixels
    Height : 1 080 pixels
    Display aspect ratio : 16:9
    Frame rate mode : Constant
    Frame rate : 23.976 fps
    Color space : YUV
    Chroma subsampling : 4:2:0
    Bit depth : 8 bits
    Scan type : Progressive
    Bits/(Pixel*Frame) : 0.394
    Stream size : 12.0 GiB (89%)
    Title : BDRip by Ash61
    Writing library : x264 core 138 r2358 9e941d1
    Encoding settings : cabac=1 / ref=4 / deblock=1:-3:-3 / analyse=0x3:0x113 / me=umh / subme=10 / psy=1 / psy_rd=1.00:0.15 / mixed_ref=1 / me_range=32 / chroma_me=1 / trellis=2 / 8x8dct=1 / cqm=0 / deadzone=21,11 / fast_pskip=1 / chroma_qp_offset=-3 / threads=12 / lookahead_threads=2 / sliced_threads=0 / nr=0 / decimate=1 / interlaced=0 / bluray_compat=0 / constrained_intra=0 / bframes=9 / b_pyramid=2 / b_adapt=2 / b_bias=0 / direct=3 / weightb=1 / open_gop=0 / weightp=2 / keyint=250 / keyint_min=23 / scenecut=40 / intra_refresh=0 / rc_lookahead=60 / rc=crf / mbtree=1 / crf=18.0 / qcomp=0.70 / qpmin=10 / qpmax=69 / qpstep=4 / vbv_maxrate=40000 / vbv_bufsize=30000 / crf_max=0.0 / nal_hrd=none / frame-packing=4 / ip_ratio=1.40 / aq=1:0.70
    Language : English
    Default : Yes
    Forced : No
    Audio #1
    ID : 2
    Format : AC-3
    Format/Info : Audio Coding 3
    Mode extension : CM (complete main)
    Format settings, Endianness : Big
    Codec ID : A_AC3
    Duration : 1h 27mn
    Bit rate mode : Constant
    Bit rate : 640 Kbps
    Channel(s) : 6 channels
    Channel positions : Front: L C R, Side: L R, LFE
    Sampling rate : 48.0 KHz
    Bit depth : 16 bits
    Compression mode : Lossy
    Stream size : 400 MiB (3%)
    Title : Одноголосый закадровый - Омикрон
    Language : Russian
    Default : Yes
    Forced : No
    Audio #2
    ID : 3
    Format : AC-3
    Format/Info : Audio Coding 3
    Mode extension : CM (complete main)
    Format settings, Endianness : Big
    Codec ID : A_AC3
    Duration : 1h 27mn
    Bit rate mode : Constant
    Bit rate : 640 Kbps
    Channel(s) : 6 channels
    Channel positions : Front: L C R, Side: L R, LFE
    Sampling rate : 48.0 KHz
    Bit depth : 16 bits
    Compression mode : Lossy
    Stream size : 400 MiB (3%)
    Title : Одноголосый закадровый - Д. Есарев
    Language : Russian
    Default : No
    Forced : No
    Audio #3
    ID : 4
    Format : AC-3
    Format/Info : Audio Coding 3
    Mode extension : CM (complete main)
    Format settings, Endianness : Big
    Codec ID : A_AC3
    Duration : 1h 27mn
    Bit rate mode : Constant
    Bit rate : 640 Kbps
    Channel(s) : 6 channels
    Channel positions : Front: L C R, Side: L R, LFE
    Sampling rate : 48.0 KHz
    Bit depth : 16 bits
    Compression mode : Lossy
    Stream size : 400 MiB (3%)
    Title : Original - BD 3D Jap
    Language : English
    Default : No
    Forced : No
    Menu
    00:00:00.000 : :1
    00:00:39.039 : :2
    00:03:10.190 : :3
    00:07:20.148 : :4
    00:11:32.859 : :5
    00:14:10.933 : :6
    00:20:00.282 : :7
    00:20:54.253 : :8
    00:23:13.392 : :9
    00:25:41.999 : :10
    00:28:11.356 : :11
    00:30:39.838 : :12
    00:32:09.010 : :13
    00:36:59.592 : :14
    00:39:20.191 : :15
    00:43:40.284 : :16
    00:46:38.796 : :17
    00:48:13.891 : :18
    00:52:50.876 : :19
    00:56:49.364 : :20
    00:57:45.462 : :21
    01:01:04.661 : :22
    01:05:03.399 : :23
    01:10:12.959 : :24
    01:13:20.730 : :25
    01:16:34.423 : :26
    01:21:15.871 : :27
    01:24:40.575 : :28

    Скриншоты

    Для оценки 3Д - Анимированные скрины


















    Скачать .torrent

    Скачать торрент-файл бесплатно и на максимальной скорости!

    Как скачивать? · Что такое торрент? · Рейтинг и ограничения

    !ВНИМАНИЕ!
    Сайт не распространяет и не хранит электронные версии произведений, а занимается лишь лишь предоставлением доступа к создаваемому пользователями каталогу ссылок на торрент-файлы, которые содержат только списки хеш-сумм, убедительная просьба с жалобами обращаться напрямую к пользователю. Файлы для обмена на трекере предоставлены пользователями сайта, и администрация не несёт ответственности за их содержание. Просьба не заливать файлы, защищенные авторскими правами, а также файлы нелегального содержания!


    _________________
    [Профиль] [ЛС]
    Показать сообщения:    
    Ответить на тему

    Текущее время: Сегодня, в 01:57

    Часовой пояс: GMT + 2



    Вы не можете начинать темы
    Вы не можете отвечать на сообщения
    Вы не можете редактировать свои сообщения
    Вы не можете удалять свои сообщения
    Вы не можете голосовать в опросах
    Вы не можете прикреплять файлы к сообщениям
    Вы не можете скачивать файлы