BitTorrentTracker PerecTracker.org
BitTorrentTracker PerecTracker.org
    
Регистрация  ·  Вход
 
 · 
Забыли пароль?

  • Гиганты океана в 3Д / Ocean Giants 3D (Sam Weaver) [2013, Документальный, Видовой, BDrip-AVC] Eng, Ger, Half OverUnder / Вертикальная анаморфная стереопара

    Ответить на тему
     
    Автор Сообщение

    rechyn

    Создавать темы 01-Мар-2016 17:43

           

    [Цитировать]

    Гиганты океана
    Ocean Giants 3D

    Год выпуска: 2013
    Страна: Германия (3D-Media.tv)
    Жанр: Документальный, Видовой
    Продолжительность: 00:50:14
    Перевод: Отсутствует (необязателен)
    Режиссер: Sam Weaver
    Продюсер: Attila Tenki-Описание: Ещё одна подводная документалка от Аттилы Тенки.-Доп. инфо.: 3Д глубокое.- -Качество: BDRip (by Ash61)
    Контейнер: MKV
    Формат 3D: Half OverUnder / Вертикальная анаморфная стереопара
    Порядок ракурсов: левый ракурс первый-Видео: AVC / 23,976 fps / 1920х1080p / 18.5 Mbps
    Аудио:
    #1 - Английский / AC3 / 48 KHz / 5.1 ch / 640 Kbps (BD 3D)
    #2 - Немецкий / AC3 / 48 KHz / 5.1 ch / 640 Kbps (Original - BD 3D) (Отдельным файлом)
    Субтитры: Отсутствуют

    MediaInfo

    General
    Unique ID : 198761477674759491951771344339983705925 (0x9588117339A87DC9A28286F26098A745)
    Complete name : E:\OceanGiants(2013)3D-halfOU(Ash61)Eng\OceanGiants(2013)3D-halfOU(Ash61)Eng.mkv
    Format : Matroska
    Format version : Version 2
    File size : 6.89 GiB
    Duration : 50mn 26s
    Overall bit rate : 19.6 Mbps
    Movie name : Гиганты океана / Ocean Giants (2013) 3D
    Encoded date : UTC 2015-03-14 10:26:42
    Writing application : mkvmerge v5.8.0 ('No Sleep / Pillow') built on Sep 2 2012 15:37:04
    Writing library : libebml v1.2.3 + libmatroska v1.3.0
    Video
    ID : 1
    Format : AVC
    Format/Info : Advanced Video Codec
    Format profile : High@L4.1
    Format settings, CABAC : Yes
    Format settings, ReFrames : 4 frames
    Codec ID : V_MPEG4/ISO/AVC
    Duration : 50mn 26s
    Bit rate : 18.5 Mbps
    Width : 1 920 pixels
    Height : 1 080 pixels
    Display aspect ratio : 16:9
    Frame rate mode : Constant
    Frame rate : 23.976 fps
    Color space : YUV
    Chroma subsampling : 4:2:0
    Bit depth : 8 bits
    Scan type : Progressive
    Bits/(Pixel*Frame) : 0.373
    Stream size : 6.53 GiB (95%)
    Title : BDRip by Ash61
    Writing library : x264 core 138 r2358 9e941d1
    Encoding settings : cabac=1 / ref=4 / deblock=1:-3:-3 / analyse=0x3:0x113 / me=umh / subme=10 / psy=1 / psy_rd=1.00:0.00 / mixed_ref=1 / me_range=32 / chroma_me=1 / trellis=2 / 8x8dct=1 / cqm=0 / deadzone=21,11 / fast_pskip=1 / chroma_qp_offset=-2 / threads=12 / lookahead_threads=2 / sliced_threads=0 / nr=0 / decimate=1 / interlaced=0 / bluray_compat=0 / constrained_intra=0 / bframes=9 / b_pyramid=2 / b_adapt=2 / b_bias=0 / direct=3 / weightb=1 / open_gop=0 / weightp=2 / keyint=250 / keyint_min=23 / scenecut=40 / intra_refresh=0 / rc_lookahead=60 / rc=crf / mbtree=1 / crf=17.0 / qcomp=0.70 / qpmin=0 / qpmax=69 / qpstep=4 / vbv_maxrate=40000 / vbv_bufsize=30000 / crf_max=0.0 / nal_hrd=none / frame-packing=4 / ip_ratio=1.40 / aq=1:0.70
    Language : German
    Default : Yes
    Forced : No
    Audio
    ID : 2
    Format : AC-3
    Format/Info : Audio Coding 3
    Mode extension : CM (complete main)
    Format settings, Endianness : Big
    Codec ID : A_AC3
    Duration : 50mn 26s
    Bit rate mode : Constant
    Bit rate : 640 Kbps
    Channel(s) : 6 channels
    Channel positions : Front: L C R, Side: L R, LFE
    Sampling rate : 48.0 KHz
    Bit depth : 16 bits
    Compression mode : Lossy
    Stream size : 231 MiB (3%)
    Language : English
    Default : Yes
    Forced : No
    Menu
    00:00:00.000 : :1
    00:10:24.123 : :2
    00:22:18.837 : :3
    00:32:00.669 : :4
    00:41:48.589 : :5

    Скриншоты

    Для оценки 3Д - Анимированные скрины















    Скачать .torrent

    Скачать торрент-файл бесплатно и на максимальной скорости!

    Как скачивать? · Что такое торрент? · Рейтинг и ограничения

    !ВНИМАНИЕ!
    Сайт не распространяет и не хранит электронные версии произведений, а занимается лишь лишь предоставлением доступа к создаваемому пользователями каталогу ссылок на торрент-файлы, которые содержат только списки хеш-сумм, убедительная просьба с жалобами обращаться напрямую к пользователю. Файлы для обмена на трекере предоставлены пользователями сайта, и администрация не несёт ответственности за их содержание. Просьба не заливать файлы, защищенные авторскими правами, а также файлы нелегального содержания!


    _________________
    [Профиль] [ЛС]
    Показать сообщения:    
    Ответить на тему

    Текущее время: Сегодня, в 01:14

    Часовой пояс: GMT + 2



    Вы не можете начинать темы
    Вы не можете отвечать на сообщения
    Вы не можете редактировать свои сообщения
    Вы не можете удалять свои сообщения
    Вы не можете голосовать в опросах
    Вы не можете прикреплять файлы к сообщениям
    Вы не можете скачивать файлы