BitTorrentTracker PerecTracker.org
BitTorrentTracker PerecTracker.org
    
Регистрация  ·  Вход
 
 · 
Забыли пароль?

  • Мама будет против / Серии: 1-4 из 4 (Сергей Басин) [2013, Комедия, мелодрама, HDTV 1080i]

    Ответить на тему
     
    Автор Сообщение

    rechyn

    Создавать темы 01-Мар-2016 17:12

           

    [Цитировать]

    Мама будет против-Год выпуска: 2013
    Производство: Россия, БФГ-Медиа продакшн
    Жанр: Комедия, мелодрама
    Продолжительность: ~ 00:45:00 / Серия
    Субтитры: Нет-Режиссёр: Сергей Басин
    В ролях: Елена Сафонова, Ольга Красько, Николай Иванов (II), Сергей Паршин, Татьяна Тузова, Людмила Героева-Описание: Саша и Женя очень зависят от своих мам, оба не приспособлены к жизни, к примеру, Саша не умеет готовить, а Женя ничего не делает по дому. Но в то же время они разные. Если Женя неорганизованный, неловкий и с трудом принимает решения, то Саша старается все контролировать и добивается своих целей. Из-за этого в их любви не все гладко. Но конфликт разрешается тем, что их мамы так же находят свою любовь...-Реклама: Отсутствует
    Релиз: daboen
    Все раздачи сериала
    Семпл-Качество: HDTV 1080i
    Формат: TS
    Видео кодек: AVC
    Аудио кодек: MP2
    Видео: MPEG-4 AVC, ~ 7900 Кбит/с, 1920x1080, 25 кадр/с, 0.152 Бит/(Пиксели*Кадры)
    Аудио 1: AC3, 6 ch, 384 Кбит/с, 48,0 КГц
    Аудио 2: MP2, 2 ch, 192 Кбит/с, 48,0 КГц

    MI

    General
    ID : 1 (0x1)
    Complete name : Mama.budet.protiv.01.2013.HDTV.1080i.ts
    Format : MPEG-TS
    File size : 3.23 GiB
    Duration : 51mn 52s
    Overall bit rate mode : Variable
    Overall bit rate : 8 905 Kbps
    Video
    ID : 2931 (0xB73)
    Menu ID : 1115 (0x45B)
    Format : AVC
    Format/Info : Advanced Video Codec
    Format profile : High@L4
    Format settings, CABAC : Yes
    Format settings, ReFrames : 4 frames
    Codec ID : 27
    Duration : 51mn 52s
    Bit rate : 7 883 Kbps
    Width : 1 920 pixels
    Height : 1 080 pixels
    Display aspect ratio : 16:9
    Frame rate : 25.000 fps
    Color space : YUV
    Chroma subsampling : 4:2:0
    Bit depth : 8 bits
    Scan type : MBAFF
    Scan order : Top Field First
    Bits/(Pixel*Frame) : 0.152
    Stream size : 2.86 GiB (89%)
    Audio #1
    ID : 211 (0xD3)
    Menu ID : 1115 (0x45B)
    Format : AC-3
    Format/Info : Audio Coding 3
    Mode extension : CM (complete main)
    Format settings, Endianness : Big
    Codec ID : 6
    Duration : 51mn 52s
    Bit rate mode : Constant
    Bit rate : 384 Kbps
    Channel(s) : 6 channels
    Channel positions : Front: L C R, Side: L R, LFE
    Sampling rate : 48.0 KHz
    Compression mode : Lossy
    Stream size : 142 MiB (4%)
    Language : Russian
    Audio #2
    ID : 212 (0xD4)
    Menu ID : 1115 (0x45B)
    Format : MPEG Audio
    Format version : Version 1
    Format profile : Layer 2
    Codec ID : 3
    Duration : 51mn 52s
    Bit rate mode : Constant
    Bit rate : 192 Kbps
    Channel(s) : 2 channels
    Sampling rate : 48.0 KHz
    Compression mode : Lossy
    Stream size : 71.2 MiB (2%)
    Language : Russian

    Скриншоты

    Скачать .torrent

    Скачать торрент-файл бесплатно и на максимальной скорости!

    Как скачивать? · Что такое торрент? · Рейтинг и ограничения

    !ВНИМАНИЕ!
    Сайт не распространяет и не хранит электронные версии произведений, а занимается лишь лишь предоставлением доступа к создаваемому пользователями каталогу ссылок на торрент-файлы, которые содержат только списки хеш-сумм, убедительная просьба с жалобами обращаться напрямую к пользователю. Файлы для обмена на трекере предоставлены пользователями сайта, и администрация не несёт ответственности за их содержание. Просьба не заливать файлы, защищенные авторскими правами, а также файлы нелегального содержания!


    _________________
    [Профиль] [ЛС]
    Показать сообщения:    
    Ответить на тему

    Текущее время: Сегодня, в 08:01

    Часовой пояс: GMT + 2



    Вы не можете начинать темы
    Вы не можете отвечать на сообщения
    Вы не можете редактировать свои сообщения
    Вы не можете удалять свои сообщения
    Вы не можете голосовать в опросах
    Вы не можете прикреплять файлы к сообщениям
    Вы не можете скачивать файлы