BitTorrentTracker PerecTracker.org
BitTorrentTracker PerecTracker.org
    
Регистрация  ·  Вход
 
 · 
Забыли пароль?

  • Чтобы увидеть радугу / Серии: 1-4 из 4 (Оксана Байрак) [2015, криминальный фильм, мелодрама, SATRip-AVC]

    Ответить на тему
     
    Автор Сообщение

    rechyn

    Создавать темы 01-Мар-2016 17:07

           

    [Цитировать]

    Чтобы увидеть радугу
    --
    Год выпуска: 2015
    Производство: Россия,Украина, FILM.UA
    Жанр: криминальный фильм, мелодрама
    Продолжительность: 00:43:00
    Субтитры: украинские,вшитые

    --
    Режиссёр: Оксана Байрак
    --
    В ролях: Елена Радевич, Владимир Епифанцев, Иван Колесников, Сергей Воробьёв (IV), Римма Зюбина, Марина Анисович, Михаил Дорожкин, Дмитрий Тубольцев, Ринат Хайруллин, Алиса Лукшина, Игорь Гнездилов, Сергей Детюк, Александр Иванов (XXV), Ольга Матешко, Елена Завадская (II), Катерина Жолудева, Владимир Гладкий, Владимир Гузикевич, Светлана Чикалёва, Валерий Тишлер, Назар Худоба, Ярослав Игнатенко, Александр Свиридов, Владимир Бессмертный
    --
    Описание: У 25-летней Веры все в жизни прекрасно. Она выросла в семье министра областного правительства, получила хорошее образование и готовится к карьере врача-кардиолога. Единственное, чего у Веры пока нет, – это настоящей любви. Но встреча с умным и обаятельным Игорем меняет жизнь девушки. И хотя отец Веры далеко не в восторге от ее выбора, ведь майор уголовного розыска – не совсем тот мужчина, которого бы ему хотелось видеть рядом с дочерью, он принимает ее решение… Но вскоре Веру находит Антон - её школьная любовь. Она понимает, что любовь к Антону жива, и отказывается выйти замуж за Игоря. Однако девушка и не догадывается, в каких страшных делах замешан ее школьный друг. Вскоре бывший жених сообщает Вере, что Антон – преступник, и он замешан в ограблении и … даже в убийстве!
    --
    Все раздачи сериала

    --
    Качество: SATRip-AVC
    Формат: MKV
    Видео кодек: H.264
    Аудио кодек: AC3
    Видео: MPEG-4 AVC, 720х416,25fps,~1794 Кбит/сек,Bits/Pixel 0.214
    Аудио: AC3, 48 kHz, ~192 Kbps, 2 канала

    --

    MI

    Общее
    Уникальный идентификатор : 200736894595519628989381662730468173894 (0x970485061C2A7A2CB2586A4B1E63A846)
    Полное имя : F:\Чтобы увидеть радугу\Чтобы увидеть радугу_01 серия rip by_Aleksan55.mkv
    Формат : Matroska
    Версия формата : Version 2
    Размер файла : 557 Мбайт
    Продолжительность : 43 м.
    Общий поток : 1794 Кбит/сек
    Дата кодирования : UTC 2016-02-28 07:46:35
    Программа кодирования : mkvmerge v7.8.0 ('River Man') 32bit built on Apr 3 2015 12:11:22
    Библиотека кодирования : libebml v1.3.1 + libmatroska v1.4.2
    Видео
    Идентификатор : 1
    Формат : AVC
    Формат/Информация : Advanced Video Codec
    Профиль формата : High@L4.1
    Параметр CABAC формата : Да
    Параметр ReFrames формата : 12 кадров
    Идентификатор кодека : V_MPEG4/ISO/AVC
    Продолжительность : 43 м.
    Битрейт : 1600 Кбит/сек
    Ширина : 720 пикселей
    Высота : 416 пикселей
    Соотношение сторон : 16:9
    Соотношение сторон в оригинале : 16:9
    Режим частоты кадров : Постоянный
    Частота кадров : 25,000 кадров/сек
    Цветовое пространство : YUV
    Субдискретизация насыщенности : 4:2:0
    Битовая глубина : 8 бит
    Тип развёртки : Прогрессивная
    Бит/(Пиксели*Кадры) : 0.214
    Размер потока : 486 Мбайт (87%)
    Библиотека кодирования : x264 core 146 r2538 121396c
    Настройки программы : cabac=1 / ref=12 / deblock=1:-2:-2 / analyse=0x3:0x113 / me=umh / subme=9 / psy=1 / psy_rd=1.00:0.15 / mixed_ref=1 / me_range=32 / chroma_me=1 / trellis=2 / 8x8dct=1 / cqm=0 / deadzone=21,11 / fast_pskip=1 / chroma_qp_offset=-3 / threads=6 / lookahead_threads=4 / sliced_threads=0 / nr=0 / decimate=1 / interlaced=0 / bluray_compat=0 / constrained_intra=0 / bframes=12 / b_pyramid=2 / b_adapt=2 / b_bias=0 / direct=3 / weightb=1 / open_gop=0 / weightp=2 / keyint=250 / keyint_min=25 / scenecut=40 / intra_refresh=0 / rc_lookahead=50 / rc=2pass / mbtree=1 / bitrate=1600 / ratetol=1.0 / qcomp=0.60 / qpmin=0 / qpmax=69 / qpstep=4 / cplxblur=20.0 / qblur=0.5 / ip_ratio=1.40 / aq=1:1.00
    Default : Да
    Forced : Нет
    Цветовой диапазон : Limited
    Основные цвета : BT.601 PAL
    Характеристики трансфера : BT.470 System B, BT.470 System G
    Коэффициенты матрицы : BT.601
    Аудио
    Идентификатор : 2
    Формат : AC-3
    Формат/Информация : Audio Coding 3
    Расширение режима : CM (complete main)
    Параметр Endianness формата : Big
    Идентификатор кодека : A_AC3
    Продолжительность : 43 м.
    Вид битрейта : Постоянный
    Битрейт : 192 Кбит/сек
    Каналы : 2 канала
    Расположение каналов : Front: C
    Частота : 48,0 КГц
    Метод сжатия : С потерями
    Размер потока : 59,6 Мбайт (11%)
    Default : Да
    Forced : Нет

    Скриншоты

    --Рекламы нет.
    Скачать .torrent

    Скачать торрент-файл бесплатно и на максимальной скорости!

    Как скачивать? · Что такое торрент? · Рейтинг и ограничения

    !ВНИМАНИЕ!
    Сайт не распространяет и не хранит электронные версии произведений, а занимается лишь лишь предоставлением доступа к создаваемому пользователями каталогу ссылок на торрент-файлы, которые содержат только списки хеш-сумм, убедительная просьба с жалобами обращаться напрямую к пользователю. Файлы для обмена на трекере предоставлены пользователями сайта, и администрация не несёт ответственности за их содержание. Просьба не заливать файлы, защищенные авторскими правами, а также файлы нелегального содержания!


    _________________
    [Профиль] [ЛС]
    Показать сообщения:    
    Ответить на тему

    Текущее время: Сегодня, в 04:33

    Часовой пояс: GMT + 2



    Вы не можете начинать темы
    Вы не можете отвечать на сообщения
    Вы не можете редактировать свои сообщения
    Вы не можете удалять свои сообщения
    Вы не можете голосовать в опросах
    Вы не можете прикреплять файлы к сообщениям
    Вы не можете скачивать файлы