BitTorrentTracker PerecTracker.org
BitTorrentTracker PerecTracker.org
    
Регистрация  ·  Вход
 
 · 
Забыли пароль?

  • Ангел или демон / Сезон: 1-2 / Серии: 1-40 из 40 (Марк Горобец, Стас Иванов) [2013, мистика, молодежный фильм, триллер, SATRip]

    Ответить на тему
     
    Автор Сообщение

    rechyn

    Создавать темы 01-Мар-2016 17:02

           

    [Цитировать]

    Ангел или демон
    Год выпуска: 2013
    Производство: "Амедиа по заказу СТС"
    Жанр: Мистика, молодежный фильм, триллер
    Продолжительность: 00:42:40
    Субтитры: Нет
    Режиссёр: Марк Горобец, Стас Иванов
    В ролях: Анна Андрусенко, Кирилл Запорожский, Сергей Чирков, Алексей Комашко, Татьяна Федоровская, Анастасия Стежко, Анна Скиданова, Анфиса Вистингаузен, Валерий Панков, Сергей Борисов (III), Марчин Руй, Данила Якушев, Ярослав Бойко, Артём Яковлев, Павел Делонг, Анастасия Сердюк, Дарья Волга, Максим Литовченко, Александра Грин, Виталий Кудрявцев, Сергей Карасевич, Вадим Медведев (II), Елена Ландер, Ирина Савицкова, Федя Смирнов (II), Анастасия Маринина, Антонина Комиссарова, Иван Чуваткин, Оксана Дорохина, Анна Большова, Анита Бумагина, Сергей Тэсслер, Михаил Гаврилов (II), Елена Лагута, Олеся Лагута, Максим Меркулов, Кирилл Каганович, Максим Ратинер, Евгений Воловенко, Владимир Роганов, Дарья Повереннова, Светлана Рубан, Александр Аноприков, Владимир Кошевой, Павел Попов (II), Людмила Дорошева, Сергей Сосновский, Агата Хлущевская, Наталья Зацепина, Артем Крылов, Екатерина Андреева (II), Алёна Якимова, Виктория Барканова, Валерия Бурдужа, Александр Сигуев, Ольга Кузина, Сергей Шнырёв, Анастасия Фурса, Евгений Данчевский, Елизавета Бурмистрова, Павел Шингарёв, Александра Третьякова, Александр Ткачев (III), Владимир Рузанов, Матвей Зубалевич, Евгения Ткач, Ксения Непотребная, Николай Потапов, Александр Никитин (IV), Елена Перова
    Описание: На протяжении многих веков длится противостояние добра и зла. Каждый день люди сталкиваются с вмешательством потусторонних сил. Ангелы и демоны находятся среди нас и ведут непрестанную борьбу за человеческую душу. Демоны придумывает все более изощренные ухищрения, чтобы очернить чистые души. Они манипулируют судьбами невинных людей, пытаясь обратить их ко злу. Порой даже ангелы не могут устоять перед соблазном и искушениями. Отдавшись во власть греха, они становятся падшими душами и пополняют ряды демонов. Тем не менее, небесным воинам света и добра удается отыскать в земном мире и тех людей, чьи души настолько чисты и непорочны, что никакому демону не под силу заполучить их. Они хранят земных ангелов и обучают для того, чтобы однажды они обрели крылья и бессмертие.
    Простая семнадцатилетняя школьница Маша Аверина (Анна Адрусенко) никогда не подозревала о своей истиной природе. Она – земной ангел. Уже около ста лет в этом бренном мире не встречались люди, обладающие такой кристально чистой душой как у Маши. От своего наставника Яна (Алексей Комашко) девушка узнает, что призвана бороться с демонами и спасать невинных людей от их влияния. Но не только силы света видят в Маше огромный потенциал. Демоны желают заставить ее свернуть на тропу зла. Теперь, чтобы выполнить свою миссию, девушка должна научиться противостоять соблазнам, которые готовят для нее враги всего человечества.
    Ситуацию осложняет то, что на пути Маши встречается Даниил или Дэн (Кирилл Запорожский), прекрасный падший ангел, подосланный демонами, чтобы совратить девушку. Дэн покорил её сердце, и она оказывается перед сложным выбором: исполнить своё божественное предназначение или быть рядом с возлюбленным. Вместе с тем, Дэну становится все сложнее выполнять свое задание, ведь он тоже полюбил Машу…
    Автор рипа: NeйmarJR
    Все раздачи сериала: http://perectracker.org/tracker.php?f=41&nm=%...0%BC%D0%BE%D0%BD
    Семпл: http://multi-up.com/1091073
    Качество: SATRip
    Формат: AVI
    Видео кодек: XviD
    Аудио кодек: MP3
    Видео: 720x400 (1.80:1), 25 fps, XviD build 65 ~1499 kbps avg, 0.21 bit/pixel
    Аудио: 48 kHz, MPEG Layer 3, 2 ch, ~128.00 kbps avg

    MediaInfo

    Общее
    Полное имя : D:\Сериалы\Ангел или демон\Angel.ili.demon.1.(2013).XviD.SATRip\Angel.ili.demon.1.serija.(2013).ХviD.SATRip.avi
    Формат : AVI
    Формат/Информация : Audio Video Interleave
    Размер файла : 435 Мбайт
    Продолжительность : 37 м.
    Общий поток : 1637 Кбит/сек
    Программа кодирования : VirtualDubMod 1.5.10.2 (build 2540/release)
    Библиотека кодирования : VirtualDubMod build 2540/release
    Видео
    Идентификатор : 0
    Формат : MPEG-4 Visual
    Профиль формата : Advanced Simple@L5
    Параметр BVOP формата : 2
    Параметр QPel формата : Нет
    Параметр GMC формата : Без точки перехода
    Параметр матрицы формата : Default (MPEG)
    Идентификатор кодека : XVID
    Идентификатор кодека/Подсказка : XviD
    Продолжительность : 37 м.
    Битрейт : 1500 Кбит/сек
    Ширина : 720 пикселей
    Высота : 400 пикселей
    Соотношение сторон : 16:9
    Частота кадров : 25,000 кадров/сек
    Цветовое пространство : YUV
    Субдискретизация насыщенности : 4:2:0
    Битовая глубина : 8 бит
    Тип развёртки : Прогрессивная
    Метод сжатия : С потерями
    Бит/(Пиксели*Кадры) : 0.208
    Размер потока : 398 Мбайт (92%)
    Библиотека кодирования : XviD 65
    Аудио
    Идентификатор : 1
    Формат : MPEG Audio
    Версия формата : Version 1
    Профиль формата : Layer 3
    Режим : Joint stereo
    Расширение режима : MS Stereo
    Идентификатор кодека : 55
    Идентификатор кодека/Подсказка : MP3
    Продолжительность : 37 м.
    Вид битрейта : Постоянный
    Битрейт : 128 Кбит/сек
    Каналы : 2 канала
    Частота : 48,0 КГц
    Метод сжатия : С потерями
    Размер потока : 34,0 Мбайт (8%)
    Выравнивание : Соединение по промежуткам
    Продолжительность промежутка : 40 мс. (1,00 видеокадр)
    Время предзагрузки промежутка : 504 мс.

    Скриншоты

    Скачать .torrent

    Скачать торрент-файл бесплатно и на максимальной скорости!

    Как скачивать? · Что такое торрент? · Рейтинг и ограничения

    !ВНИМАНИЕ!
    Сайт не распространяет и не хранит электронные версии произведений, а занимается лишь лишь предоставлением доступа к создаваемому пользователями каталогу ссылок на торрент-файлы, которые содержат только списки хеш-сумм, убедительная просьба с жалобами обращаться напрямую к пользователю. Файлы для обмена на трекере предоставлены пользователями сайта, и администрация не несёт ответственности за их содержание. Просьба не заливать файлы, защищенные авторскими правами, а также файлы нелегального содержания!


    _________________
    [Профиль] [ЛС]
    Показать сообщения:    
    Ответить на тему

    Текущее время: Сегодня, в 22:33

    Часовой пояс: GMT + 2



    Вы не можете начинать темы
    Вы не можете отвечать на сообщения
    Вы не можете редактировать свои сообщения
    Вы не можете удалять свои сообщения
    Вы не можете голосовать в опросах
    Вы не можете прикреплять файлы к сообщениям
    Вы не можете скачивать файлы