BitTorrentTracker PerecTracker.org
BitTorrentTracker PerecTracker.org
    
Регистрация  ·  Вход
 
 · 
Забыли пароль?

  • Реальный папа (Сергей Бобров) [2007, Россия, комедия, семейный, DVDRip]

    Ответить на тему
     
    Автор Сообщение

    rechyn

    Создавать темы 01-Мар-2016 11:24

           

    [Цитировать]

    Реальный папа
    Год выпуска: 2007
    Страна: Россия, Рекун-Синема, Красная стрела
    Жанр: комедия, семейный
    Продолжительность: 01:27:37
    Режиссер: Сергей Бобров
    В ролях: Дмитрий Дедюшко, Евгения Добровольская, Анжелина Карелина, Михаил Пореченков, Светлана Ходченкова, Дарина Юшкевич, Сергей Афанасьев, Виктор Балабанов, Дмитрий Бобров, Алексей Горбунов, Александр Дедюшко, Антонина Кончакова, Алексей Огурцов, Борис Полунин, Любовь Руднева, Егор Сальников, Евгений Сахаров, Александра Скачкова, Валентин Терентьев, Валентин Терехов, Алексей Шевченков, Олег Шеремет, Семен Шкаликов
    Описание: Быт Романа Шило можно назвать устоявшимся, или однообразным - как посмотреть. Ему под сорок, он холостяк, жизнь которого течет по стандартному кругу - работа-дом, дом-работа. Свои одинокие вечера Роман посвящает единственной страсти - сборке управляемых авиамоделей, и, похоже, Романа вполне устраивает такое течение жизни. Катастрофа происходит, когда на голову Романа, откуда ни возьмись, обрушивается привет из прошлого - четырнадцатилетняя дочь от неудавшегося брака Таня, и не одна, а с пятилетним братиком и двухлетней сестренкой, которых успела завести мать Тани от других мужей. Назвать этих детей трудными значило бы приукрасить правду. Они - ходячий букет проблем, который ломает налаженную жизнь Шило, его быт, и, главное, работу.
    Качество: DVDRip Исходник
    Формат: AVI
    Видео кодек: XviD
    Аудио кодек: MP3
    Видео: 704x288 (2.44:1), 25 fps, XviD build 67 ~1988 kbps avg, 0.39 bit/pixel
    Аудио: 48 kHz, AC3 Dolby Digital, 3/2 (L,C,R,l,r) + LFE ch, ~384 kbps
    Скачать сэмпл

    mediainfo

    General
    Complete name : E:\Реальный Папа (2008) DVD5\got.avi
    Format : AVI
    Format/Info : Audio Video Interleave
    File size : 1.46 GiB
    Duration : 1h 27mn
    Overall bit rate : 2 382 Kbps
    Writing application : VirtualDubMod 1.5.10.2 (build 2540/release)
    Writing library : VirtualDubMod build 2540/release
    Video
    ID : 0
    Format : MPEG-4 Visual
    Format profile : Advanced Simple@L5
    Format settings, BVOP : 1
    Format settings, QPel : No
    Format settings, GMC : No warppoints
    Format settings, Matrix : Default (MPEG)
    Codec ID : XVID
    Codec ID/Hint : XviD
    Duration : 1h 27mn
    Bit rate : 1 988 Kbps
    Width : 704 pixels
    Height : 288 pixels
    Display aspect ratio : 2.40:1
    Frame rate : 25.000 fps
    Color space : YUV
    Chroma subsampling : 4:2:0
    Bit depth : 8 bits
    Scan type : Progressive
    Compression mode : Lossy
    Bits/(Pixel*Frame) : 0.392
    Stream size : 1.22 GiB (83%)
    Writing library : XviD 67
    Audio
    ID : 1
    Format : AC-3
    Format/Info : Audio Coding 3
    Mode extension : CM (complete main)
    Format settings, Endianness : Big
    Codec ID : 2000
    Duration : 1h 27mn
    Bit rate mode : Constant
    Bit rate : 384 Kbps
    Channel(s) : 6 channels
    Channel positions : Front: L C R, Side: L R, LFE
    Sampling rate : 48.0 KHz
    Frame rate : 31.250 fps (1536 spf)
    Compression mode : Lossy
    Stream size : 241 MiB (16%)
    Alignment : Split accross interleaves
    Interleave, duration : 40 ms (1.00 video frame)
    Interleave, preload duratio : 500 ms

    Скриншоты

    Скачать .torrent

    Скачать торрент-файл бесплатно и на максимальной скорости!

    Как скачивать? · Что такое торрент? · Рейтинг и ограничения

    !ВНИМАНИЕ!
    Сайт не распространяет и не хранит электронные версии произведений, а занимается лишь лишь предоставлением доступа к создаваемому пользователями каталогу ссылок на торрент-файлы, которые содержат только списки хеш-сумм, убедительная просьба с жалобами обращаться напрямую к пользователю. Файлы для обмена на трекере предоставлены пользователями сайта, и администрация не несёт ответственности за их содержание. Просьба не заливать файлы, защищенные авторскими правами, а также файлы нелегального содержания!


    _________________
    [Профиль] [ЛС]
    Показать сообщения:    
    Ответить на тему

    Текущее время: Сегодня, в 23:49

    Часовой пояс: GMT + 2



    Вы не можете начинать темы
    Вы не можете отвечать на сообщения
    Вы не можете редактировать свои сообщения
    Вы не можете удалять свои сообщения
    Вы не можете голосовать в опросах
    Вы не можете прикреплять файлы к сообщениям
    Вы не можете скачивать файлы